Viceland - Cyberwar: Series 1 (2016)

Posted By: notbanned
Viceland - Cyberwar: Series 1 (2016)

Viceland - Cyberwar: Series 1 (2016)
HDTV | 1280x720 | .MP4/AVC @ 3151 Kbps | 16x~22min | 8.28 GiB
Audio: English AAC 160 kbps, 2 channels | Subs: English
Genre: Documentary

Ben Makuch travels the world to meet with hackers, government officials, and dissidents to investigate the ecosystem of cyberwarfare.
Part 1: Who is Anonymous ?
The notorious hacktivist collective Anonymous has targeted everyone from PayPal to the FBI. But a string of arrests have crippled the group. So who is Anonymous now?

Part 2: The Sony Hack
Sony Pictures was hacked and the U.S. blamed North Korea. But the government's evidence wasn't all that convincing, and many hackers and computer experts still have doubts.

Part 3: Cyber Mercenaries
Authoritarian regimes are using spyware tools bought from private companies in the West. Hacker Phineas Fisher targeted these companies to reveal their deals to suppress dissent.

Part 4: Hacked by China
From Google to the government, China has hacked many American networks. But there’s a difference between spying and stealing intellectual property.

Part 5: Syria's Cyber Battlefields
On the frontlines of one of the world's bloodiest conflicts, a parallel war is being fought in cyberspace. Is Syria's cyber battlefield creating a model for the wars of the future?

Part 6: Stuxnet the Digital Weapon
Stuxnet was a sophisticated cyber attack on an Iranian nuclear plant that may have changed the nature of warfare forever.

Part 7: Hacking the Infrastructure
As Iran ramps up its offensive cyber operations, American critical infrastructure is increasingly vulnerable to attacks.

Part 8: America's Elite Hacking Force
Tailored Access Operations, or TAO, is the NSA's elite hacking force. TAO employs some of America's best hackers–so who are their targets?

Part 9: The Zero Day Market
“Zero days” are bugs in software that hackers use to break into systems. Some are valued at up to a million dollars, with both buyers and sellers shrouded in secrecy.

Part 10: Anonymous vs ISIS
In a war with ISIS online, is Anonymous working with the U.S. government?

Part 11: The Ashley Madison Hack
After Ashley Madison, a hook-up site for married people, got hacked, its users weren't the only ones exposed - turns out the cheating site may have been cheating its own customers.

Part 12: Israel Cyber Nation
Israel is one of the world’s cyber super powers. So how did this tiny nation grow so strong – and who is it targeting?

Part 13: Lights Out in Ukraine
A cyber attack on Ukraine's power grid leaves thousands of people in the dark as a military conflict involving Russia rages in the east.

Part 14: Crime and Government Russia's Hackers
Russian cybercrime is big business – and some say hackers get a pass when they work double duty for Putin and his geopolitical ambitions.

Part 15: The Future of War
Exploring how wars of the future might be fought with autonomous machines, drones and weapons that can act on their own and whether it's ever OK to write code that can kill.

Part 16: The Race for Artificial Intelligence
From self-driving cars to Siri, a race is on to build more powerful AI, but some warn we could be programming our own extinction.


General
Complete name : Cyberwar.Series.1.01of16.Who.is.Anonymous.720p.mp4
Format : MPEG-4
Format profile : Base Media
Codec ID : isom (isom)
File size : 527 MiB
Duration : 22 min 25 s
Overall bit rate mode : Variable
Overall bit rate : 3 290 kb/s

Video
ID : 1
Format : AVC
Format/Info : Advanced Video Codec
Format profile : [email protected]
Format settings, CABAC : Yes
Format settings, ReFrames : 4 frames
Codec ID : avc1
Codec ID/Info : Advanced Video Coding
Duration : 22 min 25 s
Bit rate : 3 151 kb/s
Maximum bit rate : 12.7 Mb/s
Width : 1 280 pixels
Height : 720 pixels
Display aspect ratio : 16:9
Frame rate mode : Variable
Frame rate : 23.976 FPS
Minimum frame rate : 23.810 FPS
Maximum frame rate : 24.390 FPS
Color space : YUV
Chroma subsampling : 4:2:0
Bit depth : 8 bits
Scan type : Progressive
Bits/(Pixel*Frame) : 0.143
Stream size : 501 MiB (95%)
Encoding settings : cabac=1 / ref=1 / deblock=1:0:0 / analyse=0x3:0x3 / me=dia / subme=1 / psy=1 / psy_rd=1.00:0.00 / mixed_ref=0 / me_range=16 / chroma_me=1 / trellis=0 / 8x8dct=1 / cqm=0 / deadzone=21,11 / fast_pskip=1 / chroma_qp_offset=0 / threads=6 / lookahead_threads=1 / sliced_threads=0 / nr=0 / decimate=1 / interlaced=0 / bluray_compat=0 / constrained_intra=0 / bframes=3 / b_pyramid=2 / b_adapt=1 / b_bias=0 / direct=1 / weightb=1 / open_gop=0 / weightp=1 / keyint=240 / keyint_min=24 / scenecut=40 / intra_refresh=0 / rc_lookahead=0 / rc=abr / mbtree=0 / bitrate=3151 / ratetol=1.0 / qcomp=0.60 / qpmin=0 / qpmax=69 / qpstep=4 / vbv_maxrate=62500 / vbv_bufsize=78125 / nal_hrd=none / ip_ratio=1.40 / pb_ratio=1.30 / aq=1:1.00
Encoded date : UTC 2017-10-16 20:45:30
Tagged date : UTC 2017-10-17 03:07:28
Color range : Limited
Color primaries : BT.709
Transfer characteristics : BT.709
Matrix coefficients : BT.709

Audio
ID : 2
Format : AAC
Format/Info : Advanced Audio Codec
Format profile : LC
Codec ID : 40
Duration : 22 min 25 s
Bit rate mode : Variable
Bit rate : 160 kb/s
Maximum bit rate : 220 kb/s
Channel(s) : 2 channels
Channel positions : Front: L R
Sampling rate : 48.0 kHz
Frame rate : 46.875 FPS (1024 spf)
Compression mode : Lossy
Stream size : 25.6 MiB (5%)
Language : English
Encoded date : UTC 2017-10-17 03:07:26
Tagged date : UTC 2017-10-17 03:07:28

Text
ID : 3
Format : Timed Text
Codec ID : tx3g
Duration : 22 min 19 s
Bit rate mode : Variable
Bit rate : 127 b/s
Stream size : 20.8 KiB (0%)
Forced : No
Encoded date : UTC 2017-10-17 03:07:28
Tagged date : UTC 2017-10-17 03:07:28


Screenshots:

Viceland - Cyberwar: Series 1 (2016)

Viceland - Cyberwar: Series 1 (2016)

Viceland - Cyberwar: Series 1 (2016)

Viceland - Cyberwar: Series 1 (2016)