Manfred Mann's Earth Band: Studio Discography (1972-2004) Re-up

Posted By: v3122
Manfred Mann's Earth Band: Studio Discography (1972-2004) Re-up

Manfred Mann's Earth Band: Studio Discography (1972-2004)
EAC | Flac(Image) + Cue + Log & MP3 CBR 320Kbps
16CD | ~ 4206 or 1804 Mb | Scans(png, 600dpi) -> 709 Mb
Progressive Rock / Art Rock / Contemporary Pop-Rock

- Manfred Mann's Earth Band and Manfred Mann's Plain Music. 16 Non-Remastered Albums -

An R&B band that only played pop to get on the charts, Manfred Mann and its various permutations ranked among the most adept British Invasion acts in both styles. South African-born keyboardist Manfred Mann was originally an aspiring jazz player, moving toward R&B when more blues-oriented sounds became in vogue in England in the early '60s. Original Manfred Mann singer Paul Jones was one of the best British Invasion singers, and his resonant vocals were the best feature of their early R&B sides, which had a slightly jazzier and smoother touch than the early work of the Rolling Stones and Animals.

It was a couple covers of obscure girl group songs, "Do Wah Diddy Diddy" (the Exciters) and "Sha La La" (the Shirelles), that broke the group internationally – "Do Wah Diddy Diddy" reached number one in the States, and "Sha La La" just missed the Top Ten. The Paul Jones lineup never duplicated this success, although "Come Tomorrow" and "Pretty Flamingo" were smaller hits. From 1964 to 1966, they took the approach of playing gutsy pop/rock on their singles (including the original version of "My Little Red Book") and soul and R&B on their albums, with occasional detours into jazz, Dylan (their cover of his then-unreleased "If You Gotta Go, Go Now" was a big British hit), and competent original material.

Manfred Mann's Earth Band: Studio Discography (1972-2004) Re-up

Jones left for a solo career and acting in 1966, and the group reformed around singer Mike D'Abo (Beatle friend Klaus Voormann was also in this aggregation on bass). Adopting an even more pop-oriented approach for the singles, with occasional psychedelic and progressive touches, the band ran off a string of Top Ten hits in their homeland until 1969, although the only one to hit the jackpot in the U.S. was their cover of another unreleased Dylan song, "The Mighty Quinn."

Mann dissolved the D'Abo lineup in 1969 to form Manfred Mann Chapter Three with drummer Mike Hugg, who had been in the band since the beginning. The outfit's early jazz-rock efforts were interesting, but not very popular, and Manfred steered the ship back toward mainstream rock by forming yet another incarnation, Manfred Mann's Earth Band. The heavier, more synthesizer-oriented outfit made quite a few albums in the 1970s; 1976's The Roaring Silence made the Top Ten, and featured the number one hit "Blinded by the Light" (Mann also made the Top 40 with another Springsteen cover, "Spirit in the Night"). Ironically, despite Mann's oft-proclaimed preferences for serious explorations of jazz, blues, and progressive music, it's his pop/rock recordings that hold up best, and for which he'll be remembered most.

by Richie Unterberger, AMG
Manfred Mann's Earth Band: Studio Discography (1972-2004):

Manfred Mann's Earth Band: Studio Discography (1972-2004) Re-up

CD01: Manfred Mann's Earth Band - Glorified Magnified (1972)
EAC | Flac(Image) + Cue + Log & MP3 CBR 320Kbps
West Germany | BMG Ariola/Bronze, 258 732 | ~ 225 or 102 Mb | Scans
Progressive Rock / Art Rock / Contemporary Pop-Rock

The second album by Manfred Mann's Earth Band to be released in 1972, Glorified Magnified is as solid a heavy rock album as you're likely to find from that era, and it still holds up three decades later, mostly because these guys are smarter than the music they're playing and don't mind indulging their taste as well as their dexterity. They can romp and stomp through "Meat" or "I'm Gonna Have You All," complete with a slashing guitar solo by Mick Rogers on the latter, or throw in a synthesizer interlude by Mann on "One Way Glass" that's so quietly and carefully executed as to be worthy of a classical piece – and not skip a beat doing it. Between Rogers' bold yet tasteful leads, Mann's beautifully assertive yet virtuoso synthesizer and general keyboard work, and Colin Pattenden's muscular bass playing, this is a consistently inspired group, even when their material isn't as interesting as what they do with it, which is the case here. On "Look Around," for example, Rogers' playing on the break starts off as brief, fragmentary digressions off from a not too terribly diverting central riff that turn into longer progressions that eventually take the entire band with him – and just when you think you've got this band pegged in terms of what it's about, along comes "Ashes to the Wind," opening side two of the original LP, which includes room for an acoustic guitar amid the high-wattage excursions, all leading into a surprisingly effective synthesizer workout by Mann on "Wind," before moving onto the acoustic guitar-driven "It's All Over Now, Baby Blue." The latter, which adds instrumentation until it's so totally removed from its opening section as to be a different song, is one of the best Dylan covers of its era, and is almost worth the price of admission by itself. And then there's the title instrumental, a mix of rock and synthesizer sounds – with a choir in there somewhere – that sounds like mid-'70s King Crimson in rehearsal.

by Bruce Eder
Tracklist:

1. Meat 4:04
2. Look Around 5:11
3. One Way Glass 4:14
4. I'm Gonna Have You All 5:22
5. Down Home 3:19
6. Our Friend George 3:04
7. Ashes To The Wind 2:14
8. Wind 2:01
9. It's All Over Now, Baby Blue 4:27
10. Glorified Magnified 4:36

Exact Audio Copy V0.99 prebeta 5 from 4. May 2009

Отчёт EAC об извлечении, выполненном 20. июля 2011, 19:07

Manfred Mann's Earth Band / Glorified Magnified

Дисковод: ASUS SDRW-08D2S-U Adapter: 2 ID: 0

Режим чтения : Достоверность
Использование точного потока : Да
Отключение кэша аудио : Да
Использование указателей C2 : Нет

Коррекция смещения при чтении : 103
Способность читать области Lead-in и Lead-out : Нет
Заполнение пропущенных сэмплов тишиной : Да
Удаление блоков с тишиной в начале и конце : Нет
При вычислениях CRC использовались нулевые сэмплы : Да
Интерфейс : Встроенный Win32-интерфейс для Win NT/2000

Выходной формат : Пользовательский кодировщик
Выбранный битрейт : 768 kBit/s
Качество : Высокий
Добавление ID3-тэга : Нет
Утилита сжатия : C:\Program Files\Exact Audio Copy\FLAC\FLAC.EXE
Дополнительные параметры : -8 -V %s


TOC извлечённого CD

Трек | Старт | Длительность | Начальный сектор | Конечный сектор
––––––––––––––––––––––––––––––––––-
1 | 0:00.00 | 4:04.13 | 0 | 18312
2 | 4:04.13 | 5:11.62 | 18313 | 41699
3 | 9:16.00 | 4:14.60 | 41700 | 60809
4 | 13:30.60 | 5:22.68 | 60810 | 85027
5 | 18:53.53 | 3:19.05 | 85028 | 99957
6 | 22:12.58 | 3:04.00 | 99958 | 113757
7 | 25:16.58 | 2:14.70 | 113758 | 123877
8 | 27:31.53 | 2:01.45 | 123878 | 132997
9 | 29:33.23 | 4:27.67 | 132998 | 153089
10 | 34:01.15 | 4:36.48 | 153090 | 173837


Характеристики диапазона извлечения и сообщения об ошибках

Выбранный диапазон

Имя файла D:\Manfred Mann's Earth Band - Original Albums 1972-1982 ( Japan & West Germany 1st Press )\Glorified Magnified 1972 ( Germany 1st Press Bronze 258 732 )\Manfred Mann's Earth Band - Glorified Magnified.wav

Пиковый уровень 95.4 %
Качество диапазона 100.0 %
CRC теста 5E85FC99
CRC копии 5E85FC99
Копирование… OK

Ошибок не произошло


AccurateRip: сводка

Трек 1 точное извлечение (доверие 5) [C3D3D3C0]
Трек 2 точное извлечение (доверие 6) [4E3EE8EE]
Трек 3 точное извлечение (доверие 6) [D75426C4]
Трек 4 точное извлечение (доверие 5) [FCD43801]
Трек 5 точное извлечение (доверие 6) [AE91688B]
Трек 6 точное извлечение (доверие 6) [2F36F4F3]
Трек 7 точное извлечение (доверие 5) [D1998F86]
Трек 8 точное извлечение (доверие 6) [FBFA6DDE]
Трек 9 точное извлечение (доверие 5) [63A61FFC]
Трек 10 точное извлечение (доверие 6) [F05748D8]

Все треки извлечены точно

Конец отчёта

foobar2000 1.2.4 / Dynamic Range Meter 1.1.1
log date: 2013-07-06 10:15:41

––––––––––––––––––––––––––––––––––––––––
Analyzed: Manfred Mann's Earth Band / Glorified Magnified
––––––––––––––––––––––––––––––––––––––––

DR Peak RMS Duration Track
––––––––––––––––––––––––––––––––––––––––
DR11 -0.40 dB -15.49 dB 4:04 01-Meat
DR11 -1.87 dB -15.25 dB 5:12 02-Look Around
DR11 -2.95 dB -20.36 dB 4:15 03-One Way Glass
DR11 -2.49 dB -16.08 dB 5:23 04-I'm Gonna Have You All
DR12 -0.72 dB -16.83 dB 3:19 05-Down Home
DR12 -2.45 dB -16.40 dB 3:04 06-Our Friend George
DR12 -2.08 dB -18.76 dB 2:15 07-Ashes To The Wind
DR14 -1.86 dB -20.20 dB 2:02 08-Wind
DR11 -1.00 dB -16.45 dB 4:28 09-It's All Over Now, Baby Blue
DR11 -1.21 dB -16.43 dB 4:37 10-Glorified Magnified
––––––––––––––––––––––––––––––––––––––––

Number of tracks: 10
Official DR value: DR12

Samplerate: 44100 Hz
Channels: 2
Bits per sample: 16
Bitrate: 776 kbps
Codec: FLAC

Credits:

Manfred Mann - Organ, synthesiser, vocals
Mick Rogers - Guitar, vocals
Colin Pattenden - Bass
Chris Slade - Drums

Produced by Manfred Mann and D. Hadfield


=====================

Manfred Mann's Earth Band: Studio Discography (1972-2004) Re-up

CD02: Manfred Mann's Earth Band - Manfred Mann's Earth Band (1972)
EAC | Flac(Image) + Cue + Log & MP3 CBR 320Kbps
1990 | Japan, Century, CECC-00119 | ~ 257 or 115 Mb | Scans(jpg) Included
Progressive Rock / Art Rock / Contemporary Pop-Rock

Most folks know Manfred Mann from his '60s hits, but too few have ever heard the brilliant Manfred Mann's Earth Band album. Exploring arty and progressive directions, the Earth Band was a wholly different group from Mann's earlier lineup. Unlike the heavier art rock groups that would follow (Emerson, Lake & Palmer, Yes), the Earth Band never became burdened by its own seriousness.

Manfred Mann's Earth Band combines hypnotic instrumentals ("Tribute"), exhilarating original songs ("Captain Bobby Stout"), and three definitive covers all laden with hooks worthy of "Do Wah Diddy Diddy." Mann mines Dylan's basement tapes again for "Please Mrs. Henry" (see "Quinn the Eskimo" and "Get Your Rocks Off" on other releases). An obscure Dr. John song, "Jump Sturdy" nearly jumps off the record. The synthesizer solo "Sloth" segues into the album's centerpiece, "Living Without You." With its thumping bassline and "So hard" chorus, this might be the best version of a Randy Newman song ever recorded. Closing the album, the Mann himself takes vocal turns on "Part Time Man" and "Up & Leaving," quiet acoustic tales that contrast with the complex instrumentals of the rest of the record. On whole, Manfred Mann's Earth Band is a completely satisfying album and one of the most underrated of the '70s.

by J.P. Ollio
Tracklist:

1. California Coastline 2:49
2. Captin Bobby Stout 6:59
3. Sloth 1:26
4. Living Without you 3:38
5. Tribute 5:37
6. Please Mrs Henry 4:36
7. Jump Steady 4:54
8. Prayer 5:43
9. Part Time Man 3:06
10. Up and Leaving 3:06

Exact Audio Copy V0.99 prebeta 5 from 4. May 2009

Отчёт EAC об извлечении, выполненном 18. июля 2011, 21:40

Manfred Mann's Earth Band / Manfred Mann's Earth Band

Дисковод: ASUS SDRW-08D2S-U Adapter: 2 ID: 0

Режим чтения : Достоверность
Использование точного потока : Да
Отключение кэша аудио : Да
Использование указателей C2 : Нет

Коррекция смещения при чтении : 103
Способность читать области Lead-in и Lead-out : Нет
Заполнение пропущенных сэмплов тишиной : Да
Удаление блоков с тишиной в начале и конце : Нет
При вычислениях CRC использовались нулевые сэмплы : Да
Интерфейс : Встроенный Win32-интерфейс для Win NT/2000

Выходной формат : Пользовательский кодировщик
Выбранный битрейт : 768 kBit/s
Качество : Высокий
Добавление ID3-тэга : Нет
Утилита сжатия : C:\Program Files\Exact Audio Copy\FLAC\FLAC.EXE
Дополнительные параметры : -8 -V %s


TOC извлечённого CD

Трек | Старт | Длительность | Начальный сектор | Конечный сектор
––––––––––––––––––––––––––––––––––-
1 | 0:00.00 | 2:49.67 | 0 | 12741
2 | 2:49.67 | 6:59.45 | 12742 | 44211
3 | 9:49.37 | 1:26.05 | 44212 | 50666
4 | 11:15.42 | 3:38.38 | 50667 | 67054
5 | 14:54.05 | 5:37.40 | 67055 | 92369
6 | 20:31.45 | 4:36.65 | 92370 | 113134
7 | 25:08.35 | 4:54.05 | 113135 | 135189
8 | 30:02.40 | 5:43.62 | 135190 | 160976
9 | 35:46.27 | 3:06.10 | 160977 | 174936
10 | 38:52.37 | 3:06.45 | 174937 | 188931


Характеристики диапазона извлечения и сообщения об ошибках

Выбранный диапазон

Имя файла D:\Manfred Mann's Earth Band - Original Albums 1972-1982 ( Japan & West Germany 1st Press )\Manfred Mann's Earth Band 1972 ( 1990 Japan 1st Press CECC-00119 )\Manfred Mann's Earth Band - Manfred Mann's Earth Band.wav

Пиковый уровень 100.0 %
Качество диапазона 100.0 %
CRC теста 5DB45B1E
CRC копии 5DB45B1E
Копирование… OK

Ошибок не произошло


AccurateRip: сводка

Трек 1 нет в базе данных
Трек 2 нет в базе данных
Трек 3 нет в базе данных
Трек 4 нет в базе данных
Трек 5 нет в базе данных
Трек 6 нет в базе данных
Трек 7 нет в базе данных
Трек 8 нет в базе данных
Трек 9 нет в базе данных
Трек 10 нет в базе данных

Ни одного трека нет в базе AccurateRip

Конец отчёта

foobar2000 1.2.4 / Dynamic Range Meter 1.1.1
log date: 2013-07-06 10:15:57

––––––––––––––––––––––––––––––––––––––––
Analyzed: Manfred Mann's Earth Band / Manfred Mann's Earth Band
––––––––––––––––––––––––––––––––––––––––

DR Peak RMS Duration Track
––––––––––––––––––––––––––––––––––––––––
DR12 0.00 dB -15.65 dB 2:50 01-California Coastline
DR12 0.00 dB -13.53 dB 7:00 02-Captin Bobby Stout
DR9 -3.70 dB -15.63 dB 1:26 03-Sloth
DR11 -0.45 dB -13.22 dB 3:39 04-Living Without you
DR11 -5.53 dB -19.75 dB 5:38 05-Tribute
DR11 0.00 dB -12.71 dB 4:37 06-Please Mrs Henry
DR10 0.00 dB -12.13 dB 4:54 07-Jump Steady
DR11 0.00 dB -12.64 dB 5:44 08-Prayer
DR14 -0.50 dB -18.60 dB 3:06 09-Part Time Man
DR10 -1.95 dB -14.59 dB 3:07 10-Up and Leaving
––––––––––––––––––––––––––––––––––––––––

Number of tracks: 10
Official DR value: DR11

Samplerate: 44100 Hz
Channels: 2
Bits per sample: 16
Bitrate: 763 kbps
Codec: FLAC

Credits:

Mick Rogers - guitar, vocals
Manfred Mann - organ, Synthesizer, vocals
Colin Pattenden - bass
Chris Slade - drums

Produced by Manfred Mann and Dave Hadfield


=====================

Manfred Mann's Earth Band: Studio Discography (1972-2004) Re-up

CD03: Manfred Mann's Earth Band - Messin' (1973)
EAC | Flac(Image) + Cue + Log & MP3 CBR 320Kbps
1990 | Japan, Century, CECC-00120 | ~ 258 or 116 Mb | Scans
Progressive Rock / Art Rock / Contemporary Pop-Rock

Opening with Mike Hugg's title track, which builds on Mick Rogers' intense riffing and the killer vocals of Vicki Brown, Judith Powell, Liza Strike, and Ruby James, Messin' is pretty intense and involving from its very first bars. It's also damned topical and serious, for all of the free-wheeling rock & roll spirits and the progressive rock complexities that go into the playing. And the result is a spellbinding whole, featuring some astonishing keyboard flourishes by Manfred Mann himself (who ventures into Rick Wakeman and Keith Emerson territory on "Buddah," even as the rest of the band seems to be emulating Deep Purple) and killer guitar from Mick Rogers, while Colin Pattenden and Chris Slade lay down the rhythm section like a pair of articulate pile-drivers. They pretty much stomp their way through their rendition of Bob Dylan's "Get Your Rocks Off" and do a gorgeous high-wattage blues rendition of "Black and Blue." The whole record comes out somewhere in the middle of art rock and heavy metal, along with (amazingly enough) topical folk, and does no violence to any of the genres – and the band even works in a loose-limbed version of Dr. John's "Mardi Gras Day" as a finale. In a way, it's surprising from hearing this record that it took this band another two years, and an embrace of one of Bruce Springsteen's songs, for Manfred Mann's Earth Band to become truly well known, because all of the ingredients were in place, and their genre-bending sound was only the best, most accessible kind. The album was also issued with a different cover as Get Your Rocks Off, but Messin' has become the reissue title.

by Bruce Eder
Tracklist:

1. Messin' 9:58
2. Buddah 7:05
3. Cloudy Eyes 5:36
4. Get Your Rocks Off 2:55
5. Sadjoy 5:26
6. Black and Blue 7:24
7. Mardi Gras Day 3:04

Exact Audio Copy V0.99 prebeta 5 from 4. May 2009

Отчёт EAC об извлечении, выполненном 18. июля 2011, 22:28

Manfred Mann's Earth Band / Messin'

Дисковод: ASUS SDRW-08D2S-U Adapter: 2 ID: 0

Режим чтения : Достоверность
Использование точного потока : Да
Отключение кэша аудио : Да
Использование указателей C2 : Нет

Коррекция смещения при чтении : 103
Способность читать области Lead-in и Lead-out : Нет
Заполнение пропущенных сэмплов тишиной : Да
Удаление блоков с тишиной в начале и конце : Нет
При вычислениях CRC использовались нулевые сэмплы : Да
Интерфейс : Встроенный Win32-интерфейс для Win NT/2000

Выходной формат : Пользовательский кодировщик
Выбранный битрейт : 768 kBit/s
Качество : Высокий
Добавление ID3-тэга : Нет
Утилита сжатия : C:\Program Files\Exact Audio Copy\FLAC\FLAC.EXE
Дополнительные параметры : -8 -V %s


TOC извлечённого CD

Трек | Старт | Длительность | Начальный сектор | Конечный сектор
––––––––––––––––––––––––––––––––––-
1 | 0:00.00 | 9:58.15 | 0 | 44864
2 | 9:58.15 | 7:05.17 | 44865 | 76756
3 | 17:03.32 | 5:36.73 | 76757 | 102029
4 | 22:40.30 | 2:55.15 | 102030 | 115169
5 | 25:35.45 | 5:26.25 | 115170 | 139644
6 | 31:01.70 | 7:24.22 | 139645 | 172966
7 | 38:26.17 | 3:04.18 | 172967 | 186784


Характеристики диапазона извлечения и сообщения об ошибках

Выбранный диапазон

Имя файла D:\Manfred Mann's Earth Band - Original Albums 1972-1982 ( Japan & West Germany 1st Press )\Messin' 1973 ( 1990 Japan 1st Press CECC-00120 )\Manfred Mann's Earth Band - Messin'.wav

Пиковый уровень 100.0 %
Качество диапазона 99.9 %
CRC теста B95D0D5D
CRC копии B95D0D5D
Копирование… OK

Ошибок не произошло


AccurateRip: сводка

Трек 1 нет в базе данных
Трек 2 нет в базе данных
Трек 3 нет в базе данных
Трек 4 нет в базе данных
Трек 5 нет в базе данных
Трек 6 нет в базе данных
Трек 7 нет в базе данных

Ни одного трека нет в базе AccurateRip

Конец отчёта

foobar2000 1.2.4 / Dynamic Range Meter 1.1.1
log date: 2013-07-06 10:16:13

––––––––––––––––––––––––––––––––––––––––
Analyzed: Manfred Mann's Earth Band / Messin'
––––––––––––––––––––––––––––––––––––––––

DR Peak RMS Duration Track
––––––––––––––––––––––––––––––––––––––––
DR12 0.00 dB -14.79 dB 9:58 01-Messin'
DR13 0.00 dB -18.33 dB 7:05 02-Buddah
DR12 -1.95 dB -17.04 dB 5:37 03-Cloudy Eyes
DR10 -0.92 dB -12.97 dB 2:55 04-Get Your Rocks Off
DR10 0.00 dB -14.91 dB 5:26 05-Sadjoy
DR12 -0.22 dB -16.70 dB 7:24 06-Black and Blue
DR12 0.00 dB -14.73 dB 3:04 07-Mardi Gras Day
––––––––––––––––––––––––––––––––––––––––

Number of tracks: 7
Official DR value: DR12

Samplerate: 44100 Hz
Channels: 2
Bits per sample: 16
Bitrate: 768 kbps
Codec: FLAC

Credits:

Manfred Mann - synthesiser, organ
Mick Rogers - guitar, vocals
Colin Pattenden - bass guitar
Chris Slade - drums
with
Laurie Baker - Machines and Zoo on "Messin'"
Liza Strike - backing vocals
Vicki Brown - backing vocals
Judith Powell - backing vocals
Ruby James - backing vocals

Produced by Manfred Mann


=====================

Manfred Mann's Earth Band: Studio Discography (1972-2004) Re-up

CD04: Manfred Mann's Earth Band - Solar Fire (1973)
EAC | Flac(Image) + Cue + Log & MP3 CBR 320Kbps
France, Legacy/Petbrook, 96.515 | ~ 259 or 104 Mb | Scans
Progressive Rock / Art Rock / Contemporary Pop-Rock

Fans of muscular progressive rock will love Solar Fire, a concept album loosely designed around cosmology. The album opens with the majestic "Father of Night, Father of Day," which has the drive and complexity of a prime King Crimson track. As unlikely as it may seem, the track was controversial in Mann's native South Africa because of the "Father of black, father of white" line, implying that apartheid might not extend to infinite space. The album moves on to the progressive rock/jazz fusion of "In the Beginning, Darkness," a swinging, even funky track that benefits from soulful vocals by Doreen Chanter and Irene Chanter of the Grove Singers. The same duo contributes to the title track, a slow piece that begins with a fairly standard rock structure and incorporates a massive progressive jam in the middle. The instrumental suite which follows is a showcase for the combination of angular, sometimes slightly dissonant guitar with fluid keyboard work, and the band rocks straight through with stately grace. Once again, one is reminded of early King Crimson, which was about the only other group to turn out complex, shifting instrumentals of this quality. The album closes with the strange "Earth, the Circle, Pt. 1," which begins almost like a nursery rhyme, switches to a jazz shuffle, and fades out as an odd combination of the two. The album was groundbreaking when it was released and is still a delightful listen. If you like the hard-edged side of Manfred Mann, this may be your favorite album.

by Richard Foss
Tracklist:

1. Father Of Night 9:55
2. Solar Fire 5:17
3. In The Beginning 5:21
4. Earth The Circle Part 1 3:23
5. Saturn - (Mercury) 6:30
6. Earth The Circle Part 2 3:48
7. Pluto The Dog 2:46

Exact Audio Copy V1.0 beta 1 from 15. November 2010

EAC extraction logfile from 25. December 2010, 23:59

Manfred Mann's Earth Band / Solar Fire (96.515)

Used drive : TEAC DV-W516GDM Adapter: 0 ID: 1

Read mode : Secure
Utilize accurate stream : Yes
Defeat audio cache : Yes
Make use of C2 pointers : No

Read offset correction : 6
Overread into Lead-In and Lead-Out : No
Fill up missing offset samples with silence : Yes
Delete leading and trailing silent blocks : No
Null samples used in CRC calculations : Yes
Used interface : Native Win32 interface for Win NT & 2000

Used output format : User Defined Encoder
Selected bitrate : 896 kBit/s
Quality : High
Add ID3 tag : No
Command line compressor : C:\Program Files\Exact Audio Copy 1.0\Flac\flac.exe
Additional command line options : -8 -V %s


TOC of the extracted CD

Track | Start | Length | Start sector | End sector
––––––––––––––––––––––––––––-
1 | 0:00.33 | 9:55.05 | 33 | 44662
2 | 9:55.38 | 5:17.05 | 44663 | 68442
3 | 15:12.43 | 5:21.40 | 68443 | 92557
4 | 20:34.08 | 3:23.55 | 92558 | 107837
5 | 23:57.63 | 6:30.60 | 107838 | 137147
6 | 30:28.48 | 3:48.10 | 137148 | 154257
7 | 34:16.58 | 2:46.67 | 154258 | 166774


Range status and errors

Selected range

Filename C:\Olaf der Weisse\Manfred Mann's Earth Band . 1974 . Solar Fire (96.515)\Manfred Mann's Earth Band - Solar Fire (96.515).wav

Peak level 87.3 %
Extraction speed 0.1 X
Range quality 99.9 %
Test CRC 414B0804
Copy CRC 414B0804
Copy OK

No errors occurred


AccurateRip summary

Track 1 accurately ripped (confidence 11) [9453F226]
Track 2 accurately ripped (confidence 11) [B49CEAFC]
Track 3 accurately ripped (confidence 12) [B6FDF137]
Track 4 accurately ripped (confidence 12) [996212B4]
Track 5 accurately ripped (confidence 12) [6853AF32]
Track 6 accurately ripped (confidence 11) [E3A649C3]
Track 7 accurately ripped (confidence 11) [CF57B879]

All tracks accurately ripped

End of status report

foobar2000 1.2.4 / Dynamic Range Meter 1.1.1
log date: 2013-07-06 10:16:28

––––––––––––––––––––––––––––––––––––––––
Analyzed: Manfred Mann's Earth Band / Solar Fire (96.515)
––––––––––––––––––––––––––––––––––––––––

DR Peak RMS Duration Track
––––––––––––––––––––––––––––––––––––––––
DR12 -1.17 dB -16.32 dB 9:55 01-Father Of Night
DR12 -1.73 dB -16.86 dB 5:17 02-Solar Fire
DR12 -1.17 dB -15.75 dB 5:22 03-In The Beginning
DR11 -2.38 dB -15.68 dB 3:24 04-Earth The Circle Part 1
DR12 -1.17 dB -15.90 dB 6:31 05-Saturn - (Mercury)
DR12 -2.22 dB -18.32 dB 3:48 06-Earth The Circle Part 2
DR12 -1.35 dB -16.85 dB 2:47 07-Pluto The Dog
––––––––––––––––––––––––––––––––––––––––

Number of tracks: 7
Official DR value: DR12

Samplerate: 44100 Hz
Channels: 2
Bits per sample: 16
Bitrate: 878 kbps
Codec: FLAC

Credits:

Manfred Mann - organ, synthesizers, vocals
Colin Pattenden - bass
Mick Rogers - lead vocals, guitar
Chris Slade - drums

Doreen Chanter - backing vocals
Irene Chanter - backing vocals
The Grove Singers - backing vocals
Peter Miles - percussion (2)
Paul Rutherford - trombone

Produced by Manfred Mann


=====================

Manfred Mann's Earth Band: Studio Discography (1972-2004) Re-up

CD05: Manfred Mann's Earth Band - The Good Earth (1974)
EAC | Flac(Image) + Cue + Log & MP3 CBR 320Kbps
West Germany, BMG Ariola/Bronze, 258 734 | ~ 252 or 109 Mb | Scans
Progressive Rock / Art Rock / Contemporary Pop-Rock

Another piece of topical hard rock from Manfred Mann's Earth Band and, as before, listenable even to those without a serious bone in their bodies, by virtue of the playing. Moving between hard rock and British blues influences (with a special debt to Cream on the opening cut, "Give Me the Good Earth") and progressive rock, the quartet cuts a mean swathe across the sonic landscape, between Mick Rogers' soaring guitar solos and Manfred Mann's inimitable synthesizer work. Some of the less ambitious cuts, such as "I'll Be Gone," are relatively dispensable, but when these guys start reaching, as on "Earth Hymn," that's when their best musical instincts take hold, and the results are always worth hearing. There's stuff here that King Crimson or Be Bop Deluxe wouldn't have been ashamed to have had on any of their albums; indeed, the instrumental "Sky High" is worth the price of admission by itself as a showcase for the talents of all four players as both hard rock musicians and an art rock ensemble. They even manage to work in elements of folk-rock, and its attendant lyricism, on the album, by way of the Christopher Logue-based "Be Not Too Hard" (which was also recorded, in a different adaptation, by Joan Baez about seven years earlier). And "Earth Hymn, Pt. 2" closes out the album in grand style, once again pushing the band to the edge of their unique brand of progressive/hard rock.

by Bruce Eder
Tracklist:

1. Give Me The Good Earth 8:16
2. Launching Place 5:55
3. I'll Be Gone 3:24
4. Earth Hymn 6:22
5. Sky High 5:17
6. Be Not Too Hard 4:14
7. Earth Hymn Part 2 4:17

Exact Audio Copy V1.0 beta 1 from 15. November 2010

EAC extraction logfile from 26. December 2010, 2:04

Manfred Mann's Earth Band / The Good Earth (258 734)

Used drive : TEAC DV-W516GDM Adapter: 0 ID: 1

Read mode : Secure
Utilize accurate stream : Yes
Defeat audio cache : Yes
Make use of C2 pointers : No

Read offset correction : 6
Overread into Lead-In and Lead-Out : No
Fill up missing offset samples with silence : Yes
Delete leading and trailing silent blocks : No
Null samples used in CRC calculations : Yes
Used interface : Native Win32 interface for Win NT & 2000

Used output format : User Defined Encoder
Selected bitrate : 896 kBit/s
Quality : High
Add ID3 tag : No
Command line compressor : C:\Program Files\Exact Audio Copy 1.0\Flac\flac.exe
Additional command line options : -8 -V %s


TOC of the extracted CD

Track | Start | Length | Start sector | End sector
––––––––––––––––––––––––––––-
1 | 0:00.00 | 8:16.70 | 0 | 37269
2 | 8:16.70 | 5:55.35 | 37270 | 63929
3 | 14:12.30 | 3:24.32 | 63930 | 79261
4 | 17:36.62 | 6:22.48 | 79262 | 107959
5 | 23:59.35 | 5:17.55 | 107960 | 131789
6 | 29:17.15 | 4:14.27 | 131790 | 150866
7 | 33:31.42 | 4:17.35 | 150867 | 170176


Range status and errors

Selected range

Filename C:\Olaf der Weisse\Manfred Mann's Earth Band . 1974 . The Good Earth (258 734)\Manfred Mann's Earth Band - The Good Earth (258 734).wav

Peak level 98.4 %
Extraction speed 0.1 X
Range quality 100.0 %
Test CRC 70920C70
Copy CRC 70920C70
Copy OK

No errors occurred


AccurateRip summary

Track 1 accurately ripped (confidence 9) [BE9C1CA5]
Track 2 accurately ripped (confidence 9) [13C428FE]
Track 3 accurately ripped (confidence 9) [2AC79755]
Track 4 accurately ripped (confidence 9) [95438F96]
Track 5 accurately ripped (confidence 9) [99127219]
Track 6 accurately ripped (confidence 9) [A1E1B8F3]
Track 7 accurately ripped (confidence 9) [AA903C01]

All tracks accurately ripped

End of status report

foobar2000 1.2.4 / Dynamic Range Meter 1.1.1
log date: 2013-07-06 10:16:44

––––––––––––––––––––––––––––––––––––––––
Analyzed: Manfred Mann's Earth Band / The Good Earth (258 734)
––––––––––––––––––––––––––––––––––––––––

DR Peak RMS Duration Track
––––––––––––––––––––––––––––––––––––––––
DR12 -0.14 dB -16.60 dB 8:17 01-Give Me The Good Earth
DR11 -2.16 dB -17.02 dB 5:55 02-Launching Place
DR11 -2.25 dB -15.95 dB 3:24 03-I'll Be Gone
DR11 -2.94 dB -16.73 dB 6:23 04-Earth Hymn
DR11 -2.13 dB -16.57 dB 5:18 05-Sky High
DR11 -2.93 dB -16.87 dB 4:14 06-Be Not Too Hard
DR12 -0.14 dB -16.68 dB 4:17 07-Earth Hymn Part 2
––––––––––––––––––––––––––––––––––––––––

Number of tracks: 7
Official DR value: DR11

Samplerate: 44100 Hz
Channels: 2
Bits per sample: 16
Bitrate: 776 kbps
Codec: FLAC

Credits:

Manfred Mann – keyboards
Mick Rogers – guitars, vocals
Chris Slade – drums
Colin Pattenden – bass guitar

Produced by Manfred Mann and Earth Band


=====================

Manfred Mann's Earth Band: Studio Discography (1972-2004) Re-up

CD06: Manfred Mann's Earth Band - Nightingales & Bombers (1975)
EAC | Flac(Image) + Cue + Log & MP3 CBR 320Kbps
West Germany, BMG Ariola/Bronze, 258 730 | ~ 227 or 104 Mb | Scans
Progressive Rock / Art Rock / Contemporary Pop-Rock

The album that was Manfred Mann's commercial breakthrough was a departure from the previous albums made with the Earth Band. Though the personnel are the same and the musicianship is as mind-blowing as ever, the songs are shorter and punchier, in some cases more poppy. This is not to say that the band had sacrificed a bit of ingenuity or complexity, but the long jams are gone in favor of briefer sound portraits. Nightingales and Bombers included Manfred Mann's first cover of a Bruce Springsteen song, the album-opening "Spirits in the Night," a single that charted, and became one of the only pieces written in 10/4 time ever to do so. It would prove to be an important move in their recording career, as 1976's Roaring Silence earned them a big hit with Springsteen's "Blinded by the Light." Another foreshadowing of that tune can be detected in the track "Fat Nelly," which includes a synthesizer part almost identical to the intro of the aforementioned hit. Also featured in Nightingales and Bombers are such synth-driven rockers as "Crossfade," "Countdown," and the title track, in which Manfred Mann appear to be trying to capture the prog rock crown. Nightingales and Bombers featured in almost every "Best of the Year" list for 1975. Justifiably so – though attention at the time was naturally on the hits, the rest of the album features a mix of good originals and eccentric covers, inspired playing, and tight, focused arrangements. The album stands up to repeated listening decades after it was created, and though fans of the more expansive progressive phase may prefer earlier works, they will generally allow the excellence of this one. (The name of the album was once regarded as a possible drug reference, but it is actually taken from a nature recording made during World War II. An ornithologist who was trying to record birdcalls captured not only the sound of birds, but also of incoming enemy aircraft. That recording is used in the track "As Above, So Below," and gives it an eerie character.)

by Richard Foss
Tracklist:

1. Spirits In The Night 6:27
2. Countdown 3:06
3. Time Is Right 6:33
4. Crossfade 3:40
5. Visionary Mountains 5:43
6. Nightingales And Bombers 4:54
7. Fat Nelly 3:20
8. As Above So Below (Recorded Live) 4:13

Exact Audio Copy V1.0 beta 1 from 15. November 2010

EAC extraction logfile from 25. December 2010, 17:08

Manfred Mann's Earth Band / Nightingales & Bombers (258 730)

Used drive : TEAC DV-W516GDM Adapter: 0 ID: 1

Read mode : Secure
Utilize accurate stream : Yes
Defeat audio cache : Yes
Make use of C2 pointers : No

Read offset correction : 6
Overread into Lead-In and Lead-Out : No
Fill up missing offset samples with silence : Yes
Delete leading and trailing silent blocks : No
Null samples used in CRC calculations : Yes
Used interface : Native Win32 interface for Win NT & 2000

Used output format : User Defined Encoder
Selected bitrate : 896 kBit/s
Quality : High
Add ID3 tag : No
Command line compressor : C:\Program Files\Exact Audio Copy 1.0\Flac\flac.exe
Additional command line options : -8 -V %s


TOC of the extracted CD

Track | Start | Length | Start sector | End sector
––––––––––––––––––––––––––––-
1 | 0:00.00 | 6:27.27 | 0 | 29051
2 | 6:27.27 | 3:06.48 | 29052 | 43049
3 | 9:34.00 | 6:33.20 | 43050 | 72544
4 | 16:07.20 | 3:40.45 | 72545 | 89089
5 | 19:47.65 | 5:43.00 | 89090 | 114814
6 | 25:30.65 | 4:54.42 | 114815 | 136906
7 | 30:25.32 | 3:20.65 | 136907 | 151971
8 | 33:46.22 | 4:13.60 | 151972 | 171006


Range status and errors

Selected range

Filename C:\Olaf der Weisse\Manfred Mann's Earth Band . 1975 . Nightingales & Bombers (258 730)\Manfred Mann's Earth Band - Nightingales & Bombers (258 730).wav

Peak level 85.5 %
Extraction speed 0.1 X
Range quality 100.0 %
Test CRC 08C04949
Copy CRC 08C04949
Copy OK

No errors occurred


AccurateRip summary

Track 1 accurately ripped (confidence 24) [DDB8C8D9]
Track 2 accurately ripped (confidence 24) [059427ED]
Track 3 accurately ripped (confidence 24) [F3470C8E]
Track 4 accurately ripped (confidence 24) [F4F6D730]
Track 5 accurately ripped (confidence 24) [707D97E5]
Track 6 accurately ripped (confidence 24) [2A7DADE0]
Track 7 accurately ripped (confidence 23) [8645CF4E]
Track 8 accurately ripped (confidence 23) [13ED6C09]

All tracks accurately ripped

End of status report

foobar2000 1.2.4 / Dynamic Range Meter 1.1.1
log date: 2013-07-06 10:17:00

––––––––––––––––––––––––––––––––––––––––
Analyzed: Manfred Mann's Earth Band / Nightingales & Bombers (258 730)
––––––––––––––––––––––––––––––––––––––––

DR Peak RMS Duration Track
––––––––––––––––––––––––––––––––––––––––
DR12 -1.36 dB -18.13 dB 6:27 01-Spirits In The Night
DR10 -3.39 dB -15.50 dB 3:07 02-Countdown
DR12 -3.43 dB -18.05 dB 6:33 03-Time Is Right
DR11 -3.25 dB -16.14 dB 3:41 04-Crossfade
DR11 -1.73 dB -15.64 dB 5:43 05-Visionary Mountains
DR12 -2.36 dB -17.21 dB 4:55 06-Nightingales and Bombers
DR12 -2.18 dB -17.40 dB 3:21 07-Fat Nelly
DR13 -3.09 dB -20.16 dB 4:14 08-As Above So Below (Recorded Live)
––––––––––––––––––––––––––––––––––––––––

Number of tracks: 8
Official DR value: DR12

Samplerate: 44100 Hz
Channels: 2
Bits per sample: 16
Bitrate: 765 kbps
Codec: FLAC

Credits:

Manfred Mann – organ, synthesisers
Mick Rogers – guitars, vocals
Chris Slade – drums, percussion
Colin Pattenden – bass

Ruby James – backing vocals
Doreen Chanter – backing vocals
Martha Smith – backing vocals

Produced by Manfred Mann and Earth Band


=====================

Manfred Mann's Earth Band: Studio Discography (1972-2004) Re-up

CD07: Manfred Mann's Earth Band - The Roaring Silence (1976)
EAC | Flac(Image) + Cue + Log & MP3 CBR 320Kbps
West Germany, BMG Ariola/Petbrook, 258 729 | ~ 260 or 116 Mb | Scans
Progressive Rock / Art Rock / Contemporary Pop-Rock

The reason that The Roaring Silence became Manfred Mann's Earth Band's best-selling album may have been because of both Bruce Springsteen-penned singles, but its instrumental makeup, by way of Mann's keyboard manipulation coupled with Chris Thompson's chiseled singing, had just as much of an affect. "Blinded By the Light" and "Spirit in the Night" gave the band hits at both ends of the Top 40 spectrum, with "Blinded" going to number one while the mysteriously-sounding "Spirit in the Night" edged in at number 40 six months later. Outside of the singles, The Roaring Silence is made up of clean-cut, well-established synthesizer and guitar work, with touches of techno psychedelia that are sometimes lengthy but never messy. Tracks such as "Questions," "This Side of Paradise," and even "Starbird" uncover the band's creativity and instrumental wit. Mann is careful not to stray too far with his keys, and his compliance with Thompson's vocals are noticeable in almost every track. Aside from the music, The Roaring Silence basks in veiled poetry, cryptic but at the same time intriguing, verging on the complexities of progressive rock but far from its pretentiousness. Eventually achieving gold status, The Roaring Silence both commercially and artistically became the group's finest effort.

by Mike DeGagne
Tracklist:

1. Blinded By The Light 7:06
2. Singing The Dolphin Through 8:15
3. Questions 3:58
4. The Road To Babylon 6:52
5. This Side Of Paradise 4:44
6. Starbird 3:07
7. Waiter, There's A Yawn In My Ear 5:37

Exact Audio Copy V1.0 beta 1 from 15. November 2010

EAC extraction logfile from 25. December 2010, 17:54

Manfred Mann's Earth Band / The Roaring Silence (258 729)

Used drive : TEAC DV-W516GDM Adapter: 0 ID: 1

Read mode : Secure
Utilize accurate stream : Yes
Defeat audio cache : Yes
Make use of C2 pointers : No

Read offset correction : 6
Overread into Lead-In and Lead-Out : No
Fill up missing offset samples with silence : Yes
Delete leading and trailing silent blocks : No
Null samples used in CRC calculations : Yes
Used interface : Native Win32 interface for Win NT & 2000

Used output format : User Defined Encoder
Selected bitrate : 896 kBit/s
Quality : High
Add ID3 tag : No
Command line compressor : C:\Program Files\Exact Audio Copy 1.0\Flac\flac.exe
Additional command line options : -8 -V %s


TOC of the extracted CD

Track | Start | Length | Start sector | End sector
––––––––––––––––––––––––––––-
1 | 0:00.00 | 7:06.22 | 0 | 31971
2 | 7:06.22 | 8:15.38 | 31972 | 69134
3 | 15:21.60 | 3:58.65 | 69135 | 87049
4 | 19:20.50 | 6:52.27 | 87050 | 117976
5 | 26:13.02 | 4:44.65 | 117977 | 139341
6 | 30:57.67 | 3:07.63 | 139342 | 153429
7 | 34:05.55 | 5:37.10 | 153430 | 178714


Range status and errors

Selected range

Filename C:\Olaf der Weisse\Manfred Mann's Earth Band . 1976 . The Roaring Silence (258 729)\Manfred Mann's Earth Band - The Roaring Silence (258 729).wav

Peak level 88.9 %
Extraction speed 0.2 X
Range quality 99.9 %
Test CRC 189F3DA9
Copy CRC 189F3DA9
Copy OK

No errors occurred


AccurateRip summary

Track 1 accurately ripped (confidence 13) [EA222498]
Track 2 accurately ripped (confidence 13) [A3D06EC8]
Track 3 accurately ripped (confidence 14) [E90CBAD7]
Track 4 accurately ripped (confidence 13) [351F16BD]
Track 5 accurately ripped (confidence 14) [F514BB43]
Track 6 accurately ripped (confidence 13) [A0F08C0D]
Track 7 accurately ripped (confidence 13) [60B7D063]

All tracks accurately ripped

End of status report

foobar2000 1.2.4 / Dynamic Range Meter 1.1.1
log date: 2013-07-06 10:17:18

––––––––––––––––––––––––––––––––––––––––
Analyzed: Manfred Mann's Earth Band / The Roaring Silence (258 729)
––––––––––––––––––––––––––––––––––––––––

DR Peak RMS Duration Track
––––––––––––––––––––––––––––––––––––––––
DR11 -1.02 dB -15.54 dB 7:06 01-Blinded By The Light
DR12 -1.59 dB -16.81 dB 8:16 02-Singing The Dolphin Through
DR11 -3.73 dB -18.77 dB 3:59 03-Questions
DR12 -1.99 dB -17.37 dB 6:52 04-The Road To Babylon
DR11 -3.99 dB -18.12 dB 4:45 05-This Side Of Paradise
DR11 -3.32 dB -17.83 dB 3:08 06-Starbird
DR11 -3.63 dB -18.39 dB 5:37 07-Waiter, There's A Yawn In My Ear
––––––––––––––––––––––––––––––––––––––––

Number of tracks: 7
Official DR value: DR11

Samplerate: 44100 Hz
Channels: 2
Bits per sample: 16
Bitrate: 811 kbps
Codec: FLAC

Credits:

Manfred Mann - keyboards, backing vocals
Colin Pattenden - bass
Dave Flett - lead guitar
Chris Hamlet Thompson - vocals, guitar
Chris Slade - drums, percussion, backing vocals

Doreen Chanter - backing vocals
Irene Chanter - backing vocals
Susanne Lynch - backing vocals
Mick Rogers - backing vocals
Barbara Thompson - saxophone

Produced by Manfred Mann and Earth Band


=====================

Manfred Mann's Earth Band: Studio Discography (1972-2004) Re-up

CD08: Manfred Mann's Earth Band - Watch (1978)
EAC | Flac(Image) + Cue + Log & MP3 CBR 320Kbps
UK, Legacy/Petbrook, LLCD 123 | ~ 268 or 112 Mb | Scans
Progressive Rock / Art Rock / Contemporary Pop-Rock

With essentially the same crew as the excellent Roaring Silence from two years earlier, this is cut from the same musical cloth. However, without the two Bruce Springsteen songs from the earlier album, the material is not as strong. With keyboardist Manfred Mann's jazz leanings melded to a rock band, this sounds much like Colosseum without horns.

by Mark Allan
Tracklist:

1. Circles 4:48
2. Martha's Madman 4:51
3. Drowning On Dry Land / Fish Soup 5:54
4. Chicago Institute 5:46
5. California 5:27
6. Davy's On The Road Again 5:53
7. Mighty Quinn 6:19

Exact Audio Copy V1.0 beta 1 from 15. November 2010

EAC extraction logfile from 25. December 2010, 20:14

Manfred Mann's Earth Band / Watch (LLCD 123)

Used drive : TEAC DV-W516GDM Adapter: 0 ID: 1

Read mode : Secure
Utilize accurate stream : Yes
Defeat audio cache : Yes
Make use of C2 pointers : No

Read offset correction : 6
Overread into Lead-In and Lead-Out : No
Fill up missing offset samples with silence : Yes
Delete leading and trailing silent blocks : No
Null samples used in CRC calculations : Yes
Used interface : Native Win32 interface for Win NT & 2000

Used output format : User Defined Encoder
Selected bitrate : 896 kBit/s
Quality : High
Add ID3 tag : No
Command line compressor : C:\Program Files\Exact Audio Copy 1.0\Flac\flac.exe
Additional command line options : -8 -V %s


TOC of the extracted CD

Track | Start | Length | Start sector | End sector
––––––––––––––––––––––––––––-
1 | 0:00.32 | 4:48.60 | 32 | 21691
2 | 4:49.17 | 4:51.03 | 21692 | 43519
3 | 9:40.20 | 5:54.62 | 43520 | 70131
4 | 15:35.07 | 5:46.18 | 70132 | 96099
5 | 21:21.25 | 5:27.47 | 96100 | 120671
6 | 26:48.72 | 5:53.28 | 120672 | 147174
7 | 32:42.25 | 6:19.70 | 147175 | 175669


Range status and errors

Selected range

Filename C:\Olaf der Weisse\Manfred Mann's Earth Band . 1978 . Watch (LLCD 123)\Manfred Mann's Earth Band - Watch (LLCD 123).wav

Peak level 100.0 %
Extraction speed 0.2 X
Range quality 100.0 %
Test CRC 88F95ABA
Copy CRC 88F95ABA
Copy OK

No errors occurred


AccurateRip summary

Track 1 accurately ripped (confidence 3) [377498F3]
Track 2 accurately ripped (confidence 3) [5489AAD6]
Track 3 accurately ripped (confidence 3) [6F7372E0]
Track 4 accurately ripped (confidence 3) [F3B9C129]
Track 5 accurately ripped (confidence 3) [1BD7F746]
Track 6 accurately ripped (confidence 3) [DEF792C0]
Track 7 accurately ripped (confidence 3) [8B368E95]

All tracks accurately ripped

End of status report

foobar2000 1.2.4 / Dynamic Range Meter 1.1.1
log date: 2013-07-06 10:17:35

––––––––––––––––––––––––––––––––––––––––
Analyzed: Manfred Mann's Earth Band / Watch (LLCD 123)
––––––––––––––––––––––––––––––––––––––––

DR Peak RMS Duration Track
––––––––––––––––––––––––––––––––––––––––
DR12 0.00 dB -15.55 dB 4:49 01-Circles
DR13 -0.70 dB -16.34 dB 4:51 02-Martha's Madman
DR12 -1.46 dB -17.23 dB 5:55 03-Drowning On Dry Land / Fish Soup
DR12 -1.90 dB -17.16 dB 5:46 04-Chicago Institute
DR12 -0.76 dB -16.23 dB 5:28 05-California
DR11 -2.39 dB -17.64 dB 5:53 06-Davy's On The Road Again
DR12 -0.06 dB -15.78 dB 6:20 07-Mighty Quinn
––––––––––––––––––––––––––––––––––––––––

Number of tracks: 7
Official DR value: DR12

Samplerate: 44100 Hz
Channels: 2
Bits per sample: 16
Bitrate: 860 kbps
Codec: FLAC

Credits:

Manfred Mann - keyboards, backing vocals
Chris Slade - drums, percussion
Pat King - bass guitar, backing vocals
Dave Flett - lead guitar, acoustic guitar
Chris Hamlet Thompson - vocals, guitar

Doreen Chanter - backing vocals
Irene Chanter - backing vocals
Stevie Lange - backing vocals
Victy Silva - backing vocals
Kim Goddy - backing vocals

Produced by Manfred Mann and Earth Band


=====================

Manfred Mann's Earth Band: Studio Discography (1972-2004) Re-up

CD09: Manfred Mann's Earth Band - Angel Station (1979)
EAC | Flac(Image) + Cue + Log) & MP3 CBR 320Kbps
W. Germany, BMG Ariola/Bronze, 610 589-222 | ~ 230 or 106 Mb | Scans
Progressive Rock / Art Rock / Contemporary Pop-Rock

Vocalist Chris Thompson's last album with Manfred Mann's Earth Band is dressed up in Mann's beautiful keyboards. Angel Station has some key moments – "You Angel You," a Bob Dylan tune that sounds nothing like Dylan, and not the way their Top Ten version of "Quinn the Eskimo"/"The Mighty Quinn" was reinvented. "You Angel You" has a strong hook with topnotch Anthony Moore production work, and it melts into the title track of Harriet Schock's landmark Hollywood Town album, the source of Helen Reddy's "Ain't No Way to Treat a Lady." The Manfred Mann version is interesting, and explores the possibilities of the composition, though Schock's version is perfect country-pop and hard to top. It is nice to see a rock band with such good taste. "Angelz at My Gate," co-written by Manfred Mann, leads off side two and is another dreamy "angel" tune. It sounds mysteriously like "Games Without Frontiers," the Peter Gabriel radio hit from his 1980 third self-titled solo album. Now since this was released the year before, do you think Gabriel found inspiration from the grooves of Angel Station? While artists like Gary Wright and Jordan Rudess overwhelm you with the keyboards, Manfred Mann's are indeed the lead instrument, but he uses them to augment the vocals, not to overpower. The John Shaw-photographed album cover looks innocent enough until you turn it upside down – there a female dark angel, in open black cape, exposes her breasts. So blatant, but upside down it probably went right by many retailers, and with no hit single, it probably didn't cause too much of a stir. It's interesting that, like Gary Wright, the Earth Band recorded for Warner Bros., yet both acts only eked out a couple of hit singles. As with Wright's Headin' Home LP, this 1979 album has more than its share of good material, both keyboard players being intuitive artists with credentials and past chart success. Despite good performances on Heron's "Don't Kill It Carol" and a simply wonderful cover of Billy Falcon's 1978 release, "Waiting for the Rain," this is yet another album that deserved a better fate. The rendition of the Falcon tune may be the best performance of one of that singer's compositions ever. The two Manfred Mann songs on side two are excellent: "You Are - I Am" is good and pleasant while "Resurrection" has lyrics that display clever sarcasm and religious – or sacrilegious – overtones. Angel Station is well-crafted music by an industry veteran.

by Joe Viglione
Tracklist:

1. Don't Kill It Carol 6:17
2. You Angel You 4:02
3. Hollywood Town 5:10
4. Belle Of The Earth 2:45
5. Platform End 1:32
6. Angels At My Gate 4:50
7. You Are, I Am 5:11
8. Waiting For The Rain 6:17
9. Resurrection 2:39

Exact Audio Copy V1.0 beta 1 from 15. November 2010

EAC extraction logfile from 25. December 2010, 18:36

Manfred Mann's Earth Band / Angel Station (610 589)

Used drive : TEAC DV-W516GDM Adapter: 0 ID: 1

Read mode : Secure
Utilize accurate stream : Yes
Defeat audio cache : Yes
Make use of C2 pointers : No

Read offset correction : 6
Overread into Lead-In and Lead-Out : No
Fill up missing offset samples with silence : Yes
Delete leading and trailing silent blocks : No
Null samples used in CRC calculations : Yes
Used interface : Native Win32 interface for Win NT & 2000

Used output format : User Defined Encoder
Selected bitrate : 896 kBit/s
Quality : High
Add ID3 tag : No
Command line compressor : C:\Program Files\Exact Audio Copy 1.0\Flac\flac.exe
Additional command line options : -8 -V %s


TOC of the extracted CD

Track | Start | Length | Start sector | End sector
––––––––––––––––––––––––––––-
1 | 0:00.33 | 6:17.07 | 33 | 28314
2 | 6:17.40 | 4:02.38 | 28315 | 46502
3 | 10:20.03 | 5:10.30 | 46503 | 69782
4 | 15:30.33 | 2:45.27 | 69783 | 82184
5 | 18:15.60 | 1:32.48 | 82185 | 89132
6 | 19:48.33 | 4:50.00 | 89133 | 110882
7 | 24:38.33 | 5:11.50 | 110883 | 134257
8 | 29:50.08 | 6:17.50 | 134258 | 162582
9 | 36:07.58 | 2:39.50 | 162583 | 174557


Range status and errors

Selected range

Filename C:\Olaf der Weisse\Manfred Mann's Earth Band . 1979 . Angel Station (610 589)\Manfred Mann's Earth Band - Angel Station (610 589).wav

Peak level 89.9 %
Extraction speed 0.1 X
Range quality 99.9 %
Test CRC 51C97604
Copy CRC 51C97604
Copy OK

No errors occurred


AccurateRip summary

Track 1 accurately ripped (confidence 6) [C0DC9E6F]
Track 2 accurately ripped (confidence 6) [91923A17]
Track 3 accurately ripped (confidence 6) [0D0895B0]
Track 4 accurately ripped (confidence 6) [A56B03C1]
Track 5 accurately ripped (confidence 6) [244669C2]
Track 6 accurately ripped (confidence 6) [1C754DA7]
Track 7 accurately ripped (confidence 6) [BD764DE9]
Track 8 accurately ripped (confidence 6) [3E03941D]
Track 9 accurately ripped (confidence 5) [BE8E179B]

All tracks accurately ripped

End of status report

foobar2000 1.2.4 / Dynamic Range Meter 1.1.1
log date: 2013-07-06 10:17:50

––––––––––––––––––––––––––––––––––––––––
Analyzed: Manfred Mann's Earth Band / Angel Station (610 589)
––––––––––––––––––––––––––––––––––––––––

DR Peak RMS Duration Track
––––––––––––––––––––––––––––––––––––––––
DR13 -2.27 dB -17.94 dB 6:17 01-Don't Kill It Carol
DR12 -1.33 dB -17.38 dB 4:03 02-You Angel You
DR15 -0.92 dB -18.74 dB 5:10 03-Hollywood Town
DR15 -1.51 dB -19.32 dB 2:45 04-'Belle' of the Earth
DR13 -3.84 dB -19.65 dB 1:33 05-Platform End
DR14 -1.64 dB -18.35 dB 4:50 06-Angels at My Gate
DR14 -2.35 dB -19.86 dB 5:12 07-You Are - I Am
DR13 -3.35 dB -19.68 dB 6:18 08-Waiting for the Rain
DR14 -3.41 dB -20.30 dB 2:40 09-Resurrection
––––––––––––––––––––––––––––––––––––––––

Number of tracks: 9
Official DR value: DR14

Samplerate: 44100 Hz
Channels: 2
Bits per sample: 16
Bitrate: 751 kbps
Codec: FLAC

Credits:

Manfred Mann - keyboards, vocals
Geoff Britton - drums, alto saxophone
Pat King - bass
Steve Waller - guitar, vocals
Chris Thompson - vocals

Jimmy O'Neill - rhythm guitar
Dyan Birch - backing vocals
Anthony Moore - guitar, sequencer, synthesizer

Produced by Anthony Moore


=====================

Manfred Mann's Earth Band: Studio Discography (1972-2004) Re-up

CD10: Manfred Mann's Earth Band - Chance (1980)
EAC | Flac(Image) + Cue + Log & MP3 CBR 320Kbps
France, Legacy/Castle, CLACD 133 | ~ 266 or 119 Mb | Scans
Progressive Rock / Art Rock / Contemporary Pop-Rock

Manfred Mann's 1980 album is a strange mix of topical songwriting, progressive rock, and power pop – from its opening seconds, the Earth Band is pressing serious messages and social commentary on their listenership amid swirling prog rock keyboards and catchy guitar hooks and choruses. The whole package is challenging in ways that should have put them on the cutting edge of rock music at the outset of that decade, but one suspects that Mann and company were too musically adept and sophisticated for their own good – a little dumbing down and maybe a little less musicianship on display would have made them more accessible to the coming MTV generation. As it is, the album has held up remarkably well across a quarter century, however, even if it now seems an uncomfortably accurate warning of the way the world would go, in terms of politics and society, in the decades to come. It would also be three years before another Earth Band album was forthcoming, and that one would be steeped in world music sounds.

by Bruce Eder
Tracklist:

1. Lies (Through The 80's) 4:36
2. On The Run 3:50
3. For You 5:41
4. Adolescent Dream 2:42
5. Fritz The Blank 2:51
6. Stranded 5:48
7. Hello, I Am Your Heart 5:19
8. No Guarantee 3:49
9. Heart On The Street 4:51

Exact Audio Copy V1.0 beta 1 from 15. November 2010

EAC extraction logfile from 25. December 2010, 21:10

Manfred Mann's Earth Band / Chance (CLACD 133)

Used drive : TEAC DV-W516GDM Adapter: 0 ID: 1

Read mode : Secure
Utilize accurate stream : Yes
Defeat audio cache : Yes
Make use of C2 pointers : No

Read offset correction : 6
Overread into Lead-In and Lead-Out : No
Fill up missing offset samples with silence : Yes
Delete leading and trailing silent blocks : No
Null samples used in CRC calculations : Yes
Used interface : Native Win32 interface for Win NT & 2000

Used output format : User Defined Encoder
Selected bitrate : 896 kBit/s
Quality : High
Add ID3 tag : No
Command line compressor : C:\Program Files\Exact Audio Copy 1.0\Flac\flac.exe
Additional command line options : -8 -V %s


TOC of the extracted CD

Track | Start | Length | Start sector | End sector
––––––––––––––––––––––––––––-
1 | 0:00.33 | 4:36.70 | 33 | 20802
2 | 4:37.28 | 3:50.30 | 20803 | 38082
3 | 8:27.58 | 5:41.62 | 38083 | 63719
4 | 14:09.45 | 2:42.13 | 63720 | 75882
5 | 16:51.58 | 2:51.42 | 75883 | 88749
6 | 19:43.25 | 5:48.18 | 88750 | 114867
7 | 25:31.43 | 5:19.10 | 114868 | 138802
8 | 30:50.53 | 3:49.25 | 138803 | 156002
9 | 34:40.03 | 4:51.30 | 156003 | 177857


Range status and errors

Selected range

Filename C:\Olaf der Weisse\Manfred Mann's Earth Band . 1980 . Chance (CLACD 133)\Manfred Mann's Earth Band - Chance (CLACD 133).wav

Peak level 100.0 %
Extraction speed 0.2 X
Range quality 100.0 %
Test CRC D740AE1A
Copy CRC D740AE1A
Copy OK

No errors occurred


AccurateRip summary

Track 1 cannot be verified as accurate (confidence 3) [E584E731], AccurateRip returned [D4AEC45F]
Track 2 accurately ripped (confidence 2) [7BE0112A]
Track 3 accurately ripped (confidence 2) [7DD2A965]
Track 4 accurately ripped (confidence 2) [63BF543B]
Track 5 accurately ripped (confidence 2) [D15C2B63]
Track 6 accurately ripped (confidence 2) [A2BD0472]
Track 7 accurately ripped (confidence 2) [C0B5011E]
Track 8 accurately ripped (confidence 2) [51C9252A]
Track 9 accurately ripped (confidence 2) [009F5CF5]

8 track(s) accurately ripped
1 track(s) could not be verified as accurate

Some tracks could not be verified as accurate

End of status report

foobar2000 1.2.4 / Dynamic Range Meter 1.1.1
log date: 2013-07-06 10:18:05

––––––––––––––––––––––––––––––––––––––––
Analyzed: Manfred Mann's Earth Band / Chance (CLACD 133)
––––––––––––––––––––––––––––––––––––––––

DR Peak RMS Duration Track
––––––––––––––––––––––––––––––––––––––––
DR12 0.00 dB -14.32 dB 4:37 01-Lies (Through The 80's)
DR12 -1.34 dB -15.28 dB 3:50 02-On The Run
DR13 -0.37 dB -16.19 dB 5:42 03-For You
DR12 -1.60 dB -16.82 dB 2:42 04-Adolescent Dream
DR13 -1.31 dB -16.94 dB 2:52 05-Fritz The Blank
DR12 0.00 dB -15.28 dB 5:48 06-Stranded
DR11 -0.66 dB -15.04 dB 5:19 07-Hello, I Am Your Heart
DR11 -0.34 dB -15.84 dB 3:49 08-No Guarantee
DR13 -0.47 dB -16.87 dB 4:51 09-Heart On The Street
––––––––––––––––––––––––––––––––––––––––

Number of tracks: 9
Official DR value: DR12

Samplerate: 44100 Hz
Channels: 2
Bits per sample: 16
Bitrate: 826 kbps
Codec: FLAC

Credits:

Manfred Mann - keyboards, vocals ("Adolescent Dream")
John Lingwood - drums
Pat King - bass, bass pedals
Mick Rogers - guitars
Steve Waller - guitars, vocals ("This Is Your Heart")
Chris Thompson - vocals ("Lies Through The 80s", "On The Run", "For You")

Trevor Rabin - guitars
Robbie McIntosh - guitars
Geoff Whitehorn - guitars
Dyan Birch - vocals ("Guarantee" and others)
Willy Finlayson - vocals ("Heart On The Street")
Peter Marsh - vocals ("Stranded")
Carol Stocker - backing vocals
Barbara Thompson - saxophone

Produced by Manfred Mann


=====================

Manfred Mann's Earth Band: Studio Discography (1972-2004) Re-up

CD11: Manfred Mann's Earth Band - Somewhere In Afrika (1982)
EAC | Flac(Image) + Cue + Log & MP3 CBR 320Kbps
1990 | Japan, Century, CECC-00127 | ~ 264 or 106 Mb | Scans
Progressive Rock / Art Rock / Contemporary Pop-Rock

Somewhere in Afrika, an ode to Mann's home country of South Africa, contains a formula that is atypical of Manfred Mann's Earth Band sound. With rhythms that combine an African flavor with a modern rock feel, vocalist Mick Rogers takes over on vocals with the number 22 hit "Runner," released as the album's only single. Tracks such as "Demolition Man" and "Eyes of Nostradamus" are model Earth Band efforts, but the compelling material lies in songs such as "Lalela," "Koze Kobenini," and the title track, which conveys Mann's love for his birthplace without sounding overly pretentious or manufactured. The instrumentation is solid and free-flowing, with drums and other percussion work coming to the forefront while maintaining the group's atmosphere as a rock band. Somewhere in Afrika gave Manfred Mann's Earth Band their highest-charting American album since 1976's The Roaring Silence, peaking at number 40, but the tight musicianship and unrestricted layout of the music prove that the album should have placed much higher.

by Mike DeGagne
Tracklist:

1. Redemption Song (No Kwazulu) 7:36
2. Somewhere In Africa 1:40
3. Tribal Statistics 4:15
4. Africa Suite 8:41
5. Eyes Of Nostradamus 3:29
6. Demolition Man 3:44
7. Third World Service 5:18
8. Brothers And Sisters Of Azania 2:45

Exact Audio Copy V0.99 prebeta 5 from 4. May 2009

Отчёт EAC об извлечении, выполненном 21. июля 2011, 18:53

Manfred Mann's Earth Band / Somewhere In Africa

Дисковод: ASUS SDRW-08D2S-U Adapter: 2 ID: 0

Режим чтения : Достоверность
Использование точного потока : Да
Отключение кэша аудио : Да
Использование указателей C2 : Нет

Коррекция смещения при чтении : 103
Способность читать области Lead-in и Lead-out : Нет
Заполнение пропущенных сэмплов тишиной : Да
Удаление блоков с тишиной в начале и конце : Нет
При вычислениях CRC использовались нулевые сэмплы : Да
Интерфейс : Встроенный Win32-интерфейс для Win NT/2000

Выходной формат : Пользовательский кодировщик
Выбранный битрейт : 768 kBit/s
Качество : Высокий
Добавление ID3-тэга : Нет
Утилита сжатия : C:\Program Files\Exact Audio Copy\FLAC\FLAC.EXE
Дополнительные параметры : -8 -V %s


TOC извлечённого CD

Трек | Старт | Длительность | Начальный сектор | Конечный сектор
––––––––––––––––––––––––––––––––––-
1 | 0:00.00 | 7:36.25 | 0 | 34224
2 | 7:36.25 | 1:40.12 | 34225 | 41736
3 | 9:16.37 | 4:15.30 | 41737 | 60891
4 | 13:31.67 | 8:41.53 | 60892 | 100019
5 | 22:13.45 | 3:29.57 | 100020 | 115751
6 | 25:43.27 | 3:44.73 | 115752 | 132624
7 | 29:28.25 | 5:18.67 | 132625 | 156541
8 | 34:47.17 | 2:45.73 | 156542 | 168989


Характеристики диапазона извлечения и сообщения об ошибках

Выбранный диапазон

Имя файла D:\Manfred Mann's Earth Band - Original Albums 1972-1982 ( Japan & West Germany 1st Press )\Somewhere In Afrika 1982 ( 1990 Japan 1st Press CECC-00127 )\Manfred Mann's Earth Band - Somewhere In Africa.wav

Пиковый уровень 100.0 %
Качество диапазона 100.0 %
CRC теста F5ED9B36
CRC копии F5ED9B36
Копирование… OK

Ошибок не произошло


AccurateRip: сводка

Трек 1 нет в базе данных
Трек 2 нет в базе данных
Трек 3 нет в базе данных
Трек 4 нет в базе данных
Трек 5 нет в базе данных
Трек 6 нет в базе данных
Трек 7 нет в базе данных
Трек 8 нет в базе данных

Ни одного трека нет в базе AccurateRip

Конец отчёта

foobar2000 1.2.4 / Dynamic Range Meter 1.1.1
log date: 2013-07-06 10:18:23

––––––––––––––––––––––––––––––––––––––––
Analyzed: Manfred Mann's Earth Band / Somewhere In Africa
––––––––––––––––––––––––––––––––––––––––

DR Peak RMS Duration Track
––––––––––––––––––––––––––––––––––––––––
DR12 -0.21 dB -14.72 dB 7:36 01-Redemption Song (No Kwazulu)
DR12 -0.54 dB -15.12 dB 1:40 02-Somewhere In Africa
DR12 -0.38 dB -14.53 dB 4:15 03-Tribal Statistics
DR12 -0.13 dB -15.10 dB 8:42 04-Africa Suite:
DR12 -0.50 dB -14.88 dB 3:30 05-Eyes Of Nostradamus
DR13 -0.61 dB -14.79 dB 3:45 06-Demolition Man
DR12 0.00 dB -15.42 dB 5:19 07-Third World Service
DR11 -1.10 dB -15.29 dB 2:46 08-Brothers And Sisters Of Azania
––––––––––––––––––––––––––––––––––––––––

Number of tracks: 8
Official DR value: DR12

Samplerate: 44100 Hz
Channels: 2
Bits per sample: 16
Bitrate: 891 kbps
Codec: FLAC

Credits:

Manfred Mann - keyboards, synthesisers
John Lingwood - drums, percussion
Steve Waller - vocals, guitar
Chris Thompson - vocals
Matt Irving - bass, programming (MC4)
Shona Laing - vocals
Trevor Rabin - lead guitar on Redemption Song

Produced by Manfred Mann


=====================

Manfred Mann's Earth Band: Studio Discography (1972-2004) Re-up

CD12: Manfred Mann's Earth Band - Criminal Tango (1986)
EAC | Flac(Image) + Cue + Log & MP3 CBR 320Kbps
UK, 10 Records, DIX CD35 | ~ 257 or 103 Mb | Scans
Progressive Rock / Art Rock / Contemporary Pop-Rock

A rather up and down offering from the band, at times featuring the strong melodies and inspired cover versions which enhanced previous albums, but sometimes drifting into mundane pop-rock. It is the band's own song writing which appears to be waning most, and thus weakening the album as a whole.

Things get off to a fine start with an excellent cover version of the Jam's "Going underground". The song is slowed down from the original punk anthem and transformed into a Springsteen like power ballad. Since there are no Dylan or Springsteen songs on the album, this track makes a more than adequate substitute, to the extent that it alone makes the album worthy of investigation.

Other covers include an atmospheric version of Joni Mitchell's "Banquet" and a superb version of Eddy and the Hotrods "Do anything you wanna do". While the latter is little more than a slightly slowed down pop based affair, complete with girlie vocals on the chorus, it does boast some excellent guitar work. The weakest of the covers is the Beatles "Bulldog" which is rather mundane.

Of the other tracks, "Rescue" is a reasonable Journey like pop piece, and "Crossfire" ends the album with an instrumental jam along the lines of "Waiter there's a yawn in my ear" from "The roaring silence".

There's little sign of the early prog work of the band here, the songs being almost entirely AOR pop rock. An enjoyable album for those who enjoy the more straightforward MMEB style, but don't go looking here for much in the way of prog.

The album is actually credited to Manfred Mann's Earth Band with Chris Thomson. Whether this was an attempt to entice him to remain with the band, or simply intended to acknowledge his distinctive tones is unclear. What is clear is that his vocals are undoubtedly a highlight of the album. (Thomson actually left the band in 1979, but continued to record and tour with them until this album was released in 1986. Concurrently, he attempted to develop a career with his new band, NIGHT.)

The band appeared to have a Uriah Heep moment during the recording of the album, using no less than three different bass players.

by Easy Livin, progarchives
Tracklist:

1. Going Underground 5:19
2. Who Are The Mystery Kids? 3:44
3. Banquet 5:17
4. Killer On The Loose 3:59
5. Do Anything You Wanna Do 4:14
6. Rescue 3:00
7. You Got Me Right Through The Heart 3:53
8. Bulldog 4:24
9. Crossfire 3:44

Exact Audio Copy V1.0 beta 2 from 29. April 2011

EAC extraction logfile from 19. August 2011, 8:16

Manfred Mann's Earth Band / Criminal Tango

Used drive : TEAC CD-W552E Adapter: 1 ID: 0

Read mode : Secure
Utilize accurate stream : Yes
Defeat audio cache : Yes
Make use of C2 pointers : No

Read offset correction : 6
Overread into Lead-In and Lead-Out : No
Fill up missing offset samples with silence : Yes
Delete leading and trailing silent blocks : No
Null samples used in CRC calculations : Yes
Used interface : Installed external ASPI interface

Used output format : User Defined Encoder
Selected bitrate : 32 kBit/s
Quality : Low
Add ID3 tag : No
Command line compressor : C:\Program Files\Exact Audio Copy\FLAC\FLAC.EXE
Additional command line options : -V -8 -T "Date=%year%" -T "Genre=%genre%" %source%


TOC of the extracted CD

Track | Start | Length | Start sector | End sector
––––––––––––––––––––––––––––-
1 | 0:00.72 | 5:19.23 | 72 | 24019
2 | 5:20.20 | 3:44.70 | 24020 | 40889
3 | 9:05.15 | 5:17.27 | 40890 | 64691
4 | 14:22.42 | 3:59.60 | 64692 | 82676
5 | 18:22.27 | 4:14.30 | 82677 | 101756
6 | 22:36.57 | 3:00.03 | 101757 | 115259
7 | 25:36.60 | 3:53.50 | 115260 | 132784
8 | 29:30.35 | 4:24.12 | 132785 | 152596
9 | 33:54.47 | 3:44.28 | 152597 | 169424


Range status and errors

Selected range

Filename C:\Manfred Mann's Earth Band . 1986 . Criminal Tango (DIX CD35)\Manfred Mann's Earth Band - Criminal Tango.wav

Peak level 100.0 %
Extraction speed 4.8 X
Range quality 99.9 %
Test CRC 4BBF5436
Copy CRC 4BBF5436
Copy OK

No errors occurred


AccurateRip summary

Track 1 accurately ripped (confidence 2) [CEF4DC9D] (AR v2)
Track 2 accurately ripped (confidence 2) [6CAE45A9] (AR v2)
Track 3 accurately ripped (confidence 31) [7D615607] (AR v1)
Track 4 accurately ripped (confidence 31) [7685957A] (AR v1)
Track 5 accurately ripped (confidence 31) [1C26C1A3] (AR v1)
Track 6 accurately ripped (confidence 2) [ABEB2239] (AR v2)
Track 7 accurately ripped (confidence 2) [85CE5FDE] (AR v2)
Track 8 accurately ripped (confidence 2) [513C8049] (AR v2)
Track 9 accurately ripped (confidence 2) [0EE74FC4] (AR v2)

All tracks accurately ripped

End of status report

foobar2000 1.2.4 / Dynamic Range Meter 1.1.1
log date: 2013-07-06 10:18:40

––––––––––––––––––––––––––––––––––––––––
Analyzed: Manfred Mann's Earth Band / Criminal Tango
––––––––––––––––––––––––––––––––––––––––

DR Peak RMS Duration Track
––––––––––––––––––––––––––––––––––––––––
DR13 0.00 dB -15.68 dB 5:19 01-Going Underground
DR13 0.00 dB -14.79 dB 3:45 02-Who Are The Mystery Kids?
DR13 0.00 dB -15.66 dB 5:17 03-Banquet
DR14 -0.32 dB -16.65 dB 4:00 04-Killer On The Loose
DR13 0.00 dB -15.05 dB 4:14 05-Do Anything You Wanna Do
DR14 0.00 dB -15.86 dB 3:00 06-Rescue
DR13 -0.05 dB -15.26 dB 3:54 07-You Got Me Right Through The Heart
DR13 0.00 dB -15.72 dB 4:24 08-Bulldog
DR15 0.00 dB -18.06 dB 3:44 09-Crossfire
––––––––––––––––––––––––––––––––––––––––

Number of tracks: 9
Official DR value: DR14

Samplerate: 44100 Hz
Channels: 2
Bits per sample: 16
Bitrate: 849 kbps
Codec: FLAC

Credits:

Manfred Mann - keyboards
John Lingwood - drums, percussion
Mick Rogers - guitar, vocals
Chris Thompson - lead vocals
Steve Kinch - bass

Durban Betancourt-Laverde - bass
John Giblin - bass

Produced by Manfred Mann & Steve Forward


=====================

Manfred Mann's Earth Band: Studio Discography (1972-2004) Re-up

CD13: Manfred Mann's Earth Band - Masque (1987)
EAC | Flac(Image) + Cue + Log & MP3 CBR 320Kbps
UK, 10 Records, DIX CD69 | ~ 277 or 116 Mb | Scans
Progressive Rock / Art Rock / Contemporary Pop-Rock

In 1992, Manfred Mann's Earth Band in its latest incarnation delivered a new album that retraced a few earlier steps and got closer to finishing some ideas that earlier incarnations of the band had begun. The result was Masque, a strange and beautiful (and strangely beautiful) mix of jazz, rock, classical, and pop sounds, drawing on compositions from Paul Weller to Gustav Holst. The most easygoing incarnation of cosmic rock, Masque melds elements of '40s pop (and even big-band swing), synth pop, '70s pop/rock, and classical into a quite beautiful whole that's as seductive as it is dazzling. Mick Rogers and Maggie Ryder's vocals are a potent combination, even plunging into Manhattan Transfer territory with a little studio trickery (on "Billie's Orno Bounce"), and Mann's keyboards and Rogers' guitars make a great lead instrumental combo as well. The strangest piece here, however, is "A Couple of Mates," in which Mann excerpts elements from several other pieces, including Holst's The Planets. The whole album is essential listening for anyone who's ever been a fan of Mann's work, or even of Gustav Holst's music – even his remake of "Joybringer" (an adaptation of "Jupiter" from The Planets), which had previously been recorded by another version of the Earth Band, is distinctly fresh and startlingly beautiful, so much so that it was chosen to open the album, which is mighty impressive for a remade piece.

by Bruce Eder
Tracklist:

1. Joybringer (From Jupiter) 2:26
2. Sister Billies Blounce (Including Sister Sadie & Billies Bounce) 2:15
3. What You Give Is What You Get (Start) 2:34
4. Telegram To Monica 5:38
5. Billies Orno Blounce (Including Billies Bounce) 3:17
6. A Couple Of Mates (From Mars & Jupiter) 3:20
7. Neptune (Icebringer) 1:06
8. Rivers Run Dry 3:03
9. Hymn (From Jupiter) 3:57
10. We're Going Wrong 4:02
11. Planets Schmanets 2:41
12. Geronimo's Cadillac 4:43

Exact Audio Copy V0.99 prebeta 5 from 4. May 2009

Отчёт EAC об извлечении, выполненном 16. августа 2010, 15:18

Manfred Mann's Earth Band / Masque

Дисковод: Optiarc DVD RW AD-7240S Adapter: 1 ID: 0

Режим чтения : Достоверность
Использование точного потока : Да
Отключение кэша аудио : Да
Использование указателей C2 : Нет

Коррекция смещения при чтении : 48
Способность читать области Lead-in и Lead-out : Нет
Заполнение пропущенных сэмплов тишиной : Да
Удаление блоков с тишиной в начале и конце : Нет
При вычислениях CRC использовались нулевые сэмплы : Да
Интерфейс : Встроенный Win32-интерфейс для Win NT/2000

Выходной формат : Пользовательский кодировщик
Выбранный битрейт : 768 kBit/s
Качество : Высокий
Добавление ID3-тэга : Нет
Утилита сжатия : C:\Program Files\Exact Audio Copy\FLAC\FLAC.EXE
Дополнительные параметры : -6 -V -T "ARTIST=%a" -T "TITLE=%t" -T "ALBUM=%g" -T "DATE=%y" -T "TRACKNUMBER=%n" -T "GENRE=%m" -T "COMMENT=%e" %s -o %d


TOC извлечённого CD

Трек | Старт | Длительность | Начальный сектор | Конечный сектор
––––––––––––––––––––––––––––––––––-
1 | 0:00.00 | 2:26.48 | 0 | 10997
2 | 2:26.48 | 2:15.37 | 10998 | 21159
3 | 4:42.10 | 2:34.48 | 21160 | 32757
4 | 7:16.58 | 5:38.12 | 32758 | 58119
5 | 12:54.70 | 3:17.40 | 58120 | 72934
6 | 16:12.35 | 3:20.25 | 72935 | 87959
7 | 19:32.60 | 1:06.73 | 87960 | 92982
8 | 20:39.58 | 3:03.17 | 92983 | 106724
9 | 23:43.00 | 3:57.33 | 106725 | 124532
10 | 27:40.33 | 4:02.05 | 124533 | 142687
11 | 31:42.38 | 2:41.27 | 142688 | 154789
12 | 34:23.65 | 4:43.25 | 154790 | 176039


Характеристики диапазона извлечения и сообщения об ошибках

Выбранный диапазон

Имя файла E:\music\Музон\Manfred Mann\Masque-1987\Manfred Mann's Earth Band - Masque.wav

Пиковый уровень 100.0 %
Качество диапазона 100.0 %
CRC теста 5CDF7D8E
CRC копии 5CDF7D8E
Копирование… OK

Ошибок не произошло


AccurateRip: сводка

Трек 1 точное извлечение (доверие 23) [1F2352A6]
Трек 2 точное извлечение (доверие 23) [31A547FE]
Трек 3 точное извлечение (доверие 21) [BF122C3F]
Трек 4 точное извлечение (доверие 22) [C647F541]
Трек 5 точное извлечение (доверие 21) [73D34245]
Трек 6 точное извлечение (доверие 20) [806B6AEF]
Трек 7 точное извлечение (доверие 21) [7ADF97EE]
Трек 8 точное извлечение (доверие 20) [7A8FE417]
Трек 9 точное извлечение (доверие 21) [6B0A7809]
Трек 10 точное извлечение (доверие 22) [90FDCACE]
Трек 11 точное извлечение (доверие 21) [36BAE344]
Трек 12 точное извлечение (доверие 20) [1167BD77]

Все треки извлечены точно

Конец отчёта

foobar2000 1.2.4 / Dynamic Range Meter 1.1.1
log date: 2013-07-06 10:18:56

––––––––––––––––––––––––––––––––––––––––
Analyzed: Manfred Mann's Earth Band / Masque
––––––––––––––––––––––––––––––––––––––––

DR Peak RMS Duration Track
––––––––––––––––––––––––––––––––––––––––
DR12 0.00 dB -15.68 dB 2:27 01-Joybringer (From Jupiter)
DR14 0.00 dB -15.63 dB 2:15 02-Sister Billies Bounce (Including Sister Sadie & Billies Bounce)
DR11 -2.11 dB -16.33 dB 2:35 03-What You Give Is What You Get (Start)
DR13 0.00 dB -14.19 dB 5:38 04-Telegram To Monica
DR14 0.00 dB -15.48 dB 3:18 05-Billies Orno Bounce (Including Billies Bounce)
DR12 0.00 dB -15.37 dB 3:20 06-A Couple Of Mates (From Mars & Jupiter)
DR11 -5.68 dB -18.16 dB 1:07 07-Neptune (Icebringer)
DR12 0.00 dB -13.82 dB 3:03 08-Rivers Run Dry
DR12 0.00 dB -14.74 dB 3:57 09-Hymn (From Jupiter)
DR12 0.00 dB -13.78 dB 4:02 10-We're Going Wrong
DR12 -4.83 dB -21.30 dB 2:41 11-Planets Schmanets
DR12 0.00 dB -14.58 dB 4:43 12-Geronimo's Cadillac
––––––––––––––––––––––––––––––––––––––––

Number of tracks: 12
Official DR value: DR12

Samplerate: 44100 Hz
Channels: 2
Bits per sample: 16
Bitrate: 880 kbps
Codec: FLAC

Credits:

Manfred Mann - keyboards, trumpeton
Mick Rogers - guitar, vocals
John Lingwood - drums

Maggie Ryder - vocals
Denny Newman - vocals, bass on "Telegram to Monica"
Frank Mead - saxophones
Anthony Moore - programming on "What You Give Is What You Get"
Byron Bird - trumpet on "Billy's Bounce"
Guy Barker - trumpet on "Billy's Bounce"
Mark Feltham - bass
Durban Betancourt - bass
Andy Pask - bass
Linda Taylor - vocals
Tommy Willis - guitar
Chris Batchelor - trumpet
Ian Porter - emulator toggling

Produced by Manfred Mann with Steve Forward & Mick Rogers


=====================

Manfred Mann's Earth Band: Studio Discography (1972-2004) Re-up

CD14: Manfred Mann's Plain Music - Plains Music (1991)
EAC | Flac(Image) + Cue + Log & MP3 CBR 320Kbps
Germany, Intuition/Petbrook, INT 3062 2 | ~ 195 or 103 Mb | Scans
Progressive Rock / Art Rock / Contemporary Pop-Rock

"Plain's Music" is actually by Manfred Mann's Plain Music, not by Manfred Mann's Earth Band. The difference is important, as this album bears no relation to MMEB. The "plains" in question are those of North America, the music being "the melodies of the North American plains Indians". The sleeve notes however also bear the disclaimer "we do not pretend that (the album) is in any way representative of the original ethnic music which was the source material".

So what do we have then? In fact "Plains music" is a sparse, jazz tinged album, of light melodies, and singing which sounds more African tribal than Indian. The nearest vocal comparison I can offer is Ladysmith Black Mambazo. The tracks are however largely instrumental with sax, flute, piano, and what I take to be acoustic guitar being the dominant sounds. I hesitate over the guitar, as no guitarist is actually credited, the nearest being either Mann's keyboards, or "African hunting bows". Manfred Mann had of course dabbled with tribal sounds some nine years or so before, on MMEB's "Somewhere in Afrika", but the results then were somewhat different.

The music throughout is soft, to the point of being understated, but the jazz influence sits reasonably well with the tribal sounds. The tracks are short, and tend to fade rather abruptly without concluding satisfactorily. It did occur to me that had they been joined together to form longer pieces, the overall effect may have been improved. The album as a whole is also very short, lasting around half an hour, if that.

A pleasant, but undemanding album. Fans of MMEB's powerful prog rock sound should however approach with considerable caution.

by Easy Livin, progarchives
Tracklist:

1. Kiowa 3:15
2. Medicine Song 4:15
3. Wounded Knee 4:51
4. Laguna 4:55
5. Sikelele 3:43
6. Hunting Bow (Reprise) 1:37
7. Instumedicine Song 4:06
8. Sikelele II 4:03
9. Hunting Bow (Major) 2:39

Exact Audio Copy V1.0 beta 1 from 15. November 2010

EAC extraction logfile from 26. December 2010, 3:07

Manfred Mann's Plain Music / Plains Music (INT 3062 2)

Used drive : TEAC DV-W516GDM Adapter: 0 ID: 1

Read mode : Secure
Utilize accurate stream : Yes
Defeat audio cache : Yes
Make use of C2 pointers : No

Read offset correction : 6
Overread into Lead-In and Lead-Out : No
Fill up missing offset samples with silence : Yes
Delete leading and trailing silent blocks : No
Null samples used in CRC calculations : Yes
Used interface : Native Win32 interface for Win NT & 2000

Used output format : User Defined Encoder
Selected bitrate : 896 kBit/s
Quality : High
Add ID3 tag : No
Command line compressor : C:\Program Files\Exact Audio Copy 1.0\Flac\flac.exe
Additional command line options : -8 -V %s


TOC of the extracted CD

Track | Start | Length | Start sector | End sector
––––––––––––––––––––––––––––-
1 | 0:00.00 | 3:15.00 | 0 | 14624
2 | 3:15.00 | 4:15.40 | 14625 | 33789
3 | 7:30.40 | 4:51.00 | 33790 | 55614
4 | 12:21.40 | 4:55.52 | 55615 | 77791
5 | 17:17.17 | 3:43.28 | 77792 | 94544
6 | 21:00.45 | 1:37.25 | 94545 | 101844
7 | 22:37.70 | 4:06.02 | 101845 | 120296
8 | 26:43.72 | 4:03.13 | 120297 | 138534
9 | 30:47.10 | 2:39.20 | 138535 | 150479


Range status and errors

Selected range

Filename C:\Olaf der Weisse\Manfred Mann's Plain Music . 1991 . Plains Music (INT 3062 2)\Manfred Mann's Plain Music - Plains Music (INT 3062 2).wav

Peak level 96.9 %
Extraction speed 0.1 X
Range quality 100.0 %
Test CRC E2CB0788
Copy CRC E2CB0788
Copy OK

No errors occurred


AccurateRip summary

Track 1 accurately ripped (confidence 13) [E0DCF97E]
Track 2 accurately ripped (confidence 14) [B9B8DAE1]
Track 3 accurately ripped (confidence 13) [9117EEF1]
Track 4 accurately ripped (confidence 13) [A1E3AB95]
Track 5 accurately ripped (confidence 13) [005D41DA]
Track 6 accurately ripped (confidence 13) [76C623AD]
Track 7 accurately ripped (confidence 13) [4FADDDB4]
Track 8 accurately ripped (confidence 13) [A70CCB46]
Track 9 accurately ripped (confidence 13) [D7FFE218]

All tracks accurately ripped

End of status report

foobar2000 1.2.4 / Dynamic Range Meter 1.1.1
log date: 2013-07-06 10:19:11

––––––––––––––––––––––––––––––––––––––––
Analyzed: Manfred Mann's Plain Music / Plains Music (INT 3062 2)
––––––––––––––––––––––––––––––––––––––––

DR Peak RMS Duration Track
––––––––––––––––––––––––––––––––––––––––
DR14 -4.01 dB -21.14 dB 3:15 01-Kiowa (Kiowa Wind Song)
DR13 -0.60 dB -16.09 dB 4:16 02-Medicine Song (Apache Medicine Song)
DR15 -0.27 dB -18.31 dB 4:51 03-Wounded Knee (Dakota Ghost Dance Song)
DR14 -3.17 dB -23.10 dB 4:56 04-Laguna (Laguna Corn Grinding Song)
DR14 -2.14 dB -18.37 dB 3:43 05-Sikelele I (based on South African Xhosa Stick Fighting Song)
DR11 -5.00 dB -20.00 dB 1:37 06-Hunting Bow (Reprise)
DR15 -2.41 dB -20.75 dB 4:06 07-Instrumedicine Song (as Medicine Song)
DR15 -0.92 dB -20.88 dB 4:03 08-Sikelele II (as Sikelele)
DR12 -1.67 dB -17.30 dB 2:39 09-Hunting Bow (Kiowa War Song)
––––––––––––––––––––––––––––––––––––––––

Number of tracks: 9
Official DR value: DR14

Samplerate: 44100 Hz
Channels: 2
Bits per sample: 16
Bitrate: 713 kbps
Codec: FLAC

Credits:

Manfred Mann - keyboards
Noel McCalla - vocals
Barbara Thompson - saxophones
Peter Sklair - bass
Ian Hermann - drums, percussion

Smiler Makana - African hunting bows
Kelly Petlane - pennywhistle
Doren Thobeki - additional vocals
Walter Sanza - additional vocals
Chief Dawethi - additional vocals

Produced by Manfred Mann


=====================

Manfred Mann's Earth Band: Studio Discography (1972-2004) Re-up

CD15: Manfred Mann's Earth Band - Soft Vengeance (1996)
EAC | Flac(Image) + Cue + Log & MP3 CBR 320Kbps
Grapevine/Petbrook, 7243 841836 2 2 | ~ 387 or 144 Mb | Scans
Progressive Rock / Art Rock / Contemporary Pop-Rock

Tracklist:

Soft:
1. Pleasure And Pain 5:39
2. Play With Fire 3:57
3. Nothing Ever Happens 4:10
4. Shelter From The Storm 6:05
5. Tumbling Ball 5:35
6. The Price I Pay 4:05
7. Lose The Touch 3:31
8. Adults Only 3:36
9. Wherever Love Drops (Part One) 1:05

Vengeance:
10. The Complete History Of Sexual History 3:29
11. 99 Lbs 2:37
12. Miss You 3:33
13. Nature Of The Beast 4:35
14. Wherever Love Drops (Part Two) 2:00

Exact Audio Copy V1.0 beta 1 from 15. November 2010

EAC extraction logfile from 26. December 2010, 4:08

Manfred Mann's Earth Band / Soft Vengeance (841836 2)

Used drive : TEAC DV-W516GDM Adapter: 0 ID: 1

Read mode : Secure
Utilize accurate stream : Yes
Defeat audio cache : Yes
Make use of C2 pointers : No

Read offset correction : 6
Overread into Lead-In and Lead-Out : No
Fill up missing offset samples with silence : Yes
Delete leading and trailing silent blocks : No
Null samples used in CRC calculations : Yes
Used interface : Native Win32 interface for Win NT & 2000

Used output format : User Defined Encoder
Selected bitrate : 896 kBit/s
Quality : High
Add ID3 tag : No
Command line compressor : C:\Program Files\Exact Audio Copy 1.0\Flac\flac.exe
Additional command line options : -8 -V %s


TOC of the extracted CD

Track | Start | Length | Start sector | End sector
––––––––––––––––––––––––––––-
1 | 0:00.00 | 5:39.12 | 0 | 25436
2 | 5:39.12 | 3:57.53 | 25437 | 43264
3 | 9:36.65 | 4:10.27 | 43265 | 62041
4 | 13:47.17 | 6:05.48 | 62042 | 89464
5 | 19:52.65 | 5:35.17 | 89465 | 114606
6 | 25:28.07 | 4:05.70 | 114607 | 133051
7 | 29:34.02 | 3:31.20 | 133052 | 148896
8 | 33:05.22 | 3:36.30 | 148897 | 165126
9 | 36:41.52 | 1:05.33 | 165127 | 170034
10 | 37:47.10 | 3:29.70 | 170035 | 185779
11 | 41:17.05 | 2:37.45 | 185780 | 197599
12 | 43:54.50 | 3:33.37 | 197600 | 213611
13 | 47:28.12 | 4:35.03 | 213612 | 234239
14 | 52:03.15 | 2:00.10 | 234240 | 243249


Range status and errors

Selected range

Filename C:\Olaf der Weisse\Manfred Mann's Earth Band . 1996 . Soft Vengeance (841836 2)\Manfred Mann's Earth Band - Soft Vengeance (841836 2).wav

Peak level 99.2 %
Extraction speed 0.0 X
Range quality 100.0 %
Test CRC CDF767BB
Copy CRC CDF767BB
Copy OK

No errors occurred


AccurateRip summary

Track 1 accurately ripped (confidence 21) [941A8BE3]
Track 2 accurately ripped (confidence 20) [3B629587]
Track 3 accurately ripped (confidence 21) [9D61275B]
Track 4 accurately ripped (confidence 21) [A4EAFE86]
Track 5 accurately ripped (confidence 21) [9A8F4554]
Track 6 accurately ripped (confidence 21) [098C3D8A]
Track 7 accurately ripped (confidence 21) [1A8B559D]
Track 8 accurately ripped (confidence 21) [0F4CF0EE]
Track 9 accurately ripped (confidence 21) [2AE5B5C8]
Track 10 accurately ripped (confidence 21) [A6F195F4]
Track 11 accurately ripped (confidence 21) [BADF2F1E]
Track 12 accurately ripped (confidence 21) [FA62BCC3]
Track 13 accurately ripped (confidence 21) [9678CFF6]
Track 14 accurately ripped (confidence 21) [E742A25A]

All tracks accurately ripped

End of status report

foobar2000 1.2.4 / Dynamic Range Meter 1.1.1
log date: 2013-07-06 10:19:28

––––––––––––––––––––––––––––––––––––––––
Analyzed: Manfred Mann's Earth Band / Soft Vengeance (841836 2)
––––––––––––––––––––––––––––––––––––––––

DR Peak RMS Duration Track
––––––––––––––––––––––––––––––––––––––––
DR10 -0.06 dB -11.53 dB 5:39 01-Pleasure And Pain
DR9 -0.06 dB -11.36 dB 3:58 02-Play With Fire
DR10 -0.06 dB -11.80 dB 4:10 03-Nothing Ever Happens
DR11 -0.06 dB -12.75 dB 6:06 04-Shelter From The Storm
DR10 -0.06 dB -12.00 dB 5:35 05-Tumbling Ball
DR11 -0.06 dB -12.57 dB 4:06 06-The Price I Pay
DR11 -0.06 dB -14.21 dB 3:31 07-Lose The Touch
DR12 -0.06 dB -14.19 dB 3:36 08-Adults Only
DR13 -0.95 dB -18.76 dB 1:05 09-Wherever Love Drops (Part One)
DR10 -0.06 dB -12.07 dB 3:30 10-The Complete History Of Sexual Jealousy
DR10 -0.07 dB -12.14 dB 2:38 11-99 Lbs
DR9 -0.06 dB -10.06 dB 3:33 12-Miss You
DR9 -0.06 dB -10.84 dB 4:35 13-Nature Of The Beast
DR13 -0.64 dB -15.61 dB 2:00 14-Wherever Love Drops (Part Two)
––––––––––––––––––––––––––––––––––––––––

Number of tracks: 14
Official DR value: DR11

Samplerate: 44100 Hz
Channels: 2
Bits per sample: 16
Bitrate: 912 kbps
Codec: FLAC

Credits:

Manfred Mann - keyboards, programming
Mick Rogers - guitars
Dave Farmer - drums
Clive Bunker - drums
Steve Kinch - bass
Chris Thompson - vocals
Noel McCalla - vocals

Russell Hoban - speech on "Wherever Love Drops"
Richard Marcangelo - drums
Richard James Burgess - drums
Gavin Harrison - drums
Andy Pask - bass
Tony Patler - bass
Gary Farmer - guitar
Clem Clempson - guitar
Mitch Dalton - guitar
Tony Patler - guitar
Gary Sanctuary - Wurlitzer electric piano on "99lbs"
Linda Taylor - backing vocals
Maggie Ryder - backing vocals
Carol Kenyon - backing vocals
Janice Hoyte - backing vocals
Diane Byrch - backing vocals
Stevie Lange - backing vocals

Produced by Manfred Mann with Richard James Burgess


=====================

Manfred Mann's Earth Band: Studio Discography (1972-2004) Re-up

CD16: Manfred Mann's Earth Band - 2006 (2004)
EAC | Flac(Image) + Cue + Log & MP3 CBR 320Kbps
Germany, Edel/Petbrook, 0157912ERE | ~ 324 or 129 Mb | Scans
Progressive Rock / Art Rock / Contemporary Pop-Rock

Tracklist:

1. Demons and Dragons 3:29
2. Two Brides 1:22
3. Down in Mexico 3:31
4. Happenstance 3:02
5. The History of Sexual Jealousy 4:46
6. Black Eyes 2:10
7. Mars 3:56
8. Get Me out of This 5:35
9. Frog 4:29
10. Two Friends 5:24
11. Monkmann 3:10
12. Marche Slave 1:42
13. Independent Woman 3:30
14. Dragons (Reprise) 2:01

Exact Audio Copy V0.99 prebeta 5 from 4. May 2009

EAC extraction logfile from 31. October 2011, 9:08

Manfred Mann '06 / 2006

Used drive : HL-DT-STDVDRAM GSA-T20N Adapter: 1 ID: 0

Read mode : Secure
Utilize accurate stream : Yes
Defeat audio cache : Yes
Make use of C2 pointers : No

Read offset correction : 667
Overread into Lead-In and Lead-Out : No
Fill up missing offset samples with silence : Yes
Delete leading and trailing silent blocks : No
Null samples used in CRC calculations : Yes
Used interface : Native Win32 interface for Win NT & 2000

Used output format : User Defined Encoder
Selected bitrate : 1024 kBit/s
Quality : High
Add ID3 tag : No
Command line compressor : C:\Program Files\FLAC\flac.exe
Additional command line options : -8 -V -T "ARTIST=%a" -T "TITLE=%t" -T "ALBUM=%g" -T "DATE=%y" -T "TRACKNUMBER=%n" -T "GENRE=%m" -T "COMMENT=EAC FLAC -8" %s


TOC of the extracted CD

Track | Start | Length | Start sector | End sector
––––––––––––––––––––––––––––-
1 | 0:00.00 | 3:29.37 | 0 | 15711
2 | 3:29.37 | 1:22.35 | 15712 | 21896
3 | 4:51.72 | 3:31.51 | 21897 | 37772
4 | 8:23.48 | 3:02.44 | 37773 | 51466
5 | 11:26.17 | 4:46.65 | 51467 | 72981
6 | 16:13.07 | 2:10.54 | 72982 | 82785
7 | 18:23.61 | 3:56.46 | 82786 | 100531
8 | 22:20.32 | 5:35.46 | 100532 | 125702
9 | 27:56.03 | 4:29.00 | 125703 | 145877
10 | 32:25.03 | 5:24.54 | 145878 | 170231
11 | 37:49.57 | 3:10.43 | 170232 | 184524
12 | 41:00.25 | 1:42.68 | 184525 | 192242
13 | 42:43.18 | 3:30.59 | 192243 | 208051
14 | 46:14.02 | 2:01.18 | 208052 | 217144
15 | 50:47.20 | 28:40.55 | 228545 | 357599


Range status and errors

Selected range

Filename C:\Manfred Mann '06 2006 (Edel, 0157912ERE) [2004]\Manfred Mann '06 - 2006.wav

Peak level 97.7 %
Range quality 99.9 %
Test CRC E37E5CC7
Copy CRC E37E5CC7
Copy OK

No errors occurred


AccurateRip summary

Track 1 accurately ripped (confidence 21) [C711C7CE]
Track 2 accurately ripped (confidence 22) [72030673]
Track 3 accurately ripped (confidence 22) [3F54DD50]
Track 4 accurately ripped (confidence 22) [2A1792BD]
Track 5 accurately ripped (confidence 22) [E401841E]
Track 6 accurately ripped (confidence 22) [1F4DC574]
Track 7 accurately ripped (confidence 22) [634768C7]
Track 8 accurately ripped (confidence 22) [A1AD7BF8]
Track 9 accurately ripped (confidence 21) [CC6C02B1]
Track 10 accurately ripped (confidence 22) [095296BE]
Track 11 accurately ripped (confidence 22) [B7C79FB2]
Track 12 accurately ripped (confidence 21) [1DBDF764]
Track 13 accurately ripped (confidence 21) [44C1C0B8]
Track 14 accurately ripped (confidence 20) [5852B466]

All tracks accurately ripped

End of status report

foobar2000 1.2.4 / Dynamic Range Meter 1.1.1
log date: 2013-07-06 10:19:46

––––––––––––––––––––––––––––––––––––––––
Analyzed: Manfred Mann '06 / 2006
––––––––––––––––––––––––––––––––––––––––

DR Peak RMS Duration Track
––––––––––––––––––––––––––––––––––––––––
DR9 -0.20 dB -11.35 dB 3:29 01-Demons And Dragons (with ThomasD)
DR10 -0.20 dB -12.48 dB 1:22 02-Two Bridges (Interlude)
DR11 -0.20 dB -12.65 dB 3:32 03-Down In Mexico
DR10 -0.20 dB -12.10 dB 3:03 04-Happenstance (Instrumental)
DR9 -0.20 dB -11.44 dB 4:47 05-The History Of Sexual Jealousy
DR11 -0.20 dB -12.04 dB 2:11 06-Black Eyes
DR9 -0.20 dB -11.01 dB 3:57 07-Mars
DR8 -0.20 dB -10.67 dB 5:36 08-Get Me Out Of This
DR11 -0.27 dB -14.45 dB 4:29 09-Frog
DR10 -0.20 dB -11.19 dB 5:25 10-Two Friends
DR13 -0.20 dB -15.04 dB 3:11 11-Monkmann
DR10 -0.20 dB -12.49 dB 1:43 12-Marche Slave (Instrumental Interlude)
DR10 -0.20 dB -11.62 dB 3:31 13-Independent Woman (With ThomasD)
DR13 -0.20 dB -14.32 dB 2:01 14-Dragons (reprise)
––––––––––––––––––––––––––––––––––––––––

Number of tracks: 14
Official DR value: DR10

Samplerate: 44100 Hz
Channels: 2
Bits per sample: 16
Bitrate: 868 kbps
Codec: FLAC

Credits:

Manfred Mann – keyboards, vocals
Mick Rogers – guitars
Geoff Dunn – drums
Steve Kinch – bass
Noel McCalla – vocals

with
Chris Thompson – vocals
Thomas D – vocals
Matt Loffstadt – guitars
Don Freeman – poem and talking
Barbara Thompson – saxophone
Dean Hart – bass, guitars, vocals
Hazel Hernandez – vocals
Melanie Pappenheim – vocals
Arte Chorale – vocals
Henry's Eight – vocals

–––––––––-

All thanks go to kurok79, olaf der weisse, alonzo, yorrik90 and erro

Download Manfred Mann's Earth Band: Studio Discography (1972-2004):