Subcategories

Eagles - The Studio Albums 1972-1979 (2013) [Vinyl Rip 16/44 & mp3-320]

Posted By: v3122
Eagles - The Studio Albums 1972-1979 (2013) [Vinyl Rip 16/44 & mp3-320]

Eagles - The Studio Albums 1972-1979 (2013)
6 x Vinyl Rip 16/44 | Flac(Image + Cue) > 1461 Mb
MP3 CBR 320Kbps > 583 Mb | Artwork(jpg) > 232 Mb
Rhino Records, RRM1-536271 | 6 LP Box Set, Remastered
Country Rock, Classic Rock, Soft Rock, Folk Rock

The Eagles original Asylum Records studio albums, including each of the chart-topping albums the Rock and Roll Hall of Famers released between 1972 and 1979, is now on 180-gram vinyl in The Studio Albums 1972-1979, a limited-edition, six-LP boxed set.

The Studio Albums 1972-1979 includes each of the six Eagles albums that defined an era. Each LP features replicas of the original album packaging with two special artwork upgrades - the sleeve of the debut album, Eagles, will finally be released as the band originally intended, with no glue flaps, so the cover folds out into a poster, as described in 2013 s acclaimed documentary History of the Eagles. Hotel California will include a replica of the poster from the original issue with band photos by Norman Seeff in full color, for the first time. The Studio Albums 1972-1979 is limited to 5,000 copies and comes housed in an individually numbered slipcase with a gold foil stamp of the band s logo.

The Studio Albums 1972-1979 kicks off with the band s eponymous 1972 debut, the first of two Eagles albums produced by Glyn Johns. The disc spawned the hits "Witchy Woman, " "Take It Easy" and "Peaceful Easy Feeling, " and is followed by the band s second album, Desperado, which features the iconic title track and "Tequila Sunrise."

Remembered for the hits "Already Gone" and "Best Of My Love," which was the band s first No. 1 single, 1974 s On The Border follows. That album was the precursor to the Eagles first No. 1 album, 1975 s Grammy®-winning One Of These Nights, featuring the smash hits "Take It To The Limit," the title track, and "Lyin Eyes."

Additionally, The Studio Albums 1972-1979 includes 1976 s Hotel California, the album that immortalized the band with the unforgettable title song as well as the hits "Life In The Fast Lane" and "New Kid In Town." Hotel California was followed up in 1979 by the band s third consecutive No. 1, The Long Run, yet another multi-platinum effort made famous for the title track, plus "I Can t Tell You Why" and the No. 1 hit "Heartache Tonight."

~ amazon
Eagles - The Studio Albums 1972-1979 (2013) [Vinyl Rip 16/44 & mp3-320]


Eagles - The Studio Albums 1972-1979 (2013) [Vinyl Rip 16/44 & mp3-320]

Eagles - The Studio Albums 1972-1979 (2013):

Eagles - The Studio Albums 1972-1979 (2013) [Vinyl Rip 16/44 & mp3-320]

Tracklist VNL01 - Eagles - 1972:

1-01 - Take It Easy
1-02 - Witchy Woman
1-03 - Chug All Night
1-04 - Most Of Us Are Sad
1-05 - Nightingale
1-06 - Train Leaves Here This Morning
1-07 - Take The Devil
1-08 - Earlybird
1-09 - Peaceful Easy Feeling
1-10 - Tryin'

foobar2000 1.2.9 / Dynamic Range Meter 1.1.1
log date: 2017-11-08 18:12:51

––––––––––––––––––––––––––––––––––––––––
Analyzed: Eagles / Eagles (2013 Vinyl Box)
––––––––––––––––––––––––––––––––––––––––

DR Peak RMS Duration Track
––––––––––––––––––––––––––––––––––––––––
DR12 -1.22 dB -15.02 dB 3:32 01-Take It Easy
DR12 -0.57 dB -15.00 dB 4:11 02-Witchy Woman
DR12 -0.41 dB -14.16 dB 3:15 03-Chug All Night
DR12 -1.69 dB -16.34 dB 3:35 04-Most of Us Are Sad
DR12 -0.70 dB -14.78 dB 4:07 05-Nightingale
DR12 -1.70 dB -17.35 dB 4:10 06-Train Leaves Here This Morning
DR13 -0.55 dB -17.19 dB 4:01 07-Take the Devil
DR12 -1.12 dB -15.70 dB 3:00 08-Earlybird
DR11 -1.11 dB -15.29 dB 4:18 09-Peaceful Easy Feeling
DR11 -0.31 dB -14.37 dB 2:55 10-Tryin'
––––––––––––––––––––––––––––––––––––––––

Number of tracks: 10
Official DR value: DR12

Samplerate: 44100 Hz
Channels: 2
Bits per sample: 16
Bitrate: 833 kbps
Codec: FLAC
================================================================================



Eagles - The Studio Albums 1972-1979 (2013) [Vinyl Rip 16/44 & mp3-320]

Tracklist VNL02 - Desperado - 1973:

2-01 - Doolin Dalton
2-02 - Twenty-One
2-03 - Out Of Control
2-04 - Tequila Sunrise
2-05 - Desperado
2-06 - Certain Kind Of Fool
2-07 - Doolin Dalton (Instrumental)
2-08 - Outlaw Man
2-09 - Saturday Night
2-10 - Bitter Creek (Reprise)
2-11 - Doolin Dalton / Desperado (Reprise)

foobar2000 1.2.9 / Dynamic Range Meter 1.1.1
log date: 2017-11-08 18:13:06

––––––––––––––––––––––––––––––––––––––––
Analyzed: Eagles / Desperado (2013 Vinyl Box)
––––––––––––––––––––––––––––––––––––––––

DR Peak RMS Duration Track
––––––––––––––––––––––––––––––––––––––––
DR12 -0.97 dB -16.80 dB 3:27 01-Doolin-Dalton
DR11 -2.73 dB -14.85 dB 2:10 02-Twenty-One
DR10 -0.71 dB -12.96 dB 3:04 03-Out of Control
DR11 -2.47 dB -16.47 dB 2:53 04-Tequila Sunrise
DR11 -0.59 dB -17.12 dB 3:34 05-Desperado
DR12 -0.22 dB -14.46 dB 3:02 06-Certain Kind of Fool
DR12 -3.28 dB -18.81 dB 0:48 07-Doolin-Dalton (Instrumental)
DR10 -1.16 dB -13.63 dB 3:33 08-Outlaw Man
DR11 -3.05 dB -16.57 dB 3:21 09-Saturday Night
DR10 -2.09 dB -15.45 dB 5:01 10-Bitter Creek
DR12 -1.01 dB -16.40 dB 4:52 11-Doolin-Dalton/Desperado (Reprise)
––––––––––––––––––––––––––––––––––––––––

Number of tracks: 11
Official DR value: DR11

Samplerate: 44100 Hz
Channels: 2
Bits per sample: 16
Bitrate: 839 kbps
Codec: FLAC
================================================================================



Eagles - The Studio Albums 1972-1979 (2013) [Vinyl Rip 16/44 & mp3-320]

Tracklist VNL03 - On The Border - 1974:

3-01 - Already Gone
3-02 - You Never Cry Like A Lover
3-03 - Midnight Flyer
3-04 - My Man
3-05 - On The Border
3-06 - James Dean
3-07 - Ol' 55
3-08 - Is It True
3-09 - Good Day In Hell
3-10 - The Best Of My Love

foobar2000 1.2.9 / Dynamic Range Meter 1.1.1
log date: 2017-11-08 18:13:27

––––––––––––––––––––––––––––––––––––––––
Analyzed: Eagles / On the Border (2013 Vinyl Box)
––––––––––––––––––––––––––––––––––––––––

DR Peak RMS Duration Track
––––––––––––––––––––––––––––––––––––––––
DR12 -1.39 dB -15.37 dB 4:16 01-Already Gone
DR12 -1.55 dB -17.24 dB 4:01 02-You Never Cry Like a Lover
DR13 -0.65 dB -16.34 dB 3:58 03-Midnight Flyer
DR12 -1.86 dB -16.67 dB 3:30 04-My Man
DR13 -0.28 dB -16.63 dB 4:25 05-On The Border
DR12 -0.23 dB -15.47 dB 3:38 06-James Dean
DR12 -1.81 dB -16.50 dB 4:21 07-Ol' '55
DR13 -0.81 dB -15.99 dB 3:15 08-Is It True?
DR13 -1.09 dB -15.82 dB 4:23 09-Good Day in Hell
DR11 -2.10 dB -16.42 dB 4:36 10-Best of My Love
––––––––––––––––––––––––––––––––––––––––

Number of tracks: 10
Official DR value: DR12

Samplerate: 44100 Hz
Channels: 2
Bits per sample: 16
Bitrate: 798 kbps
Codec: FLAC
================================================================================



Eagles - The Studio Albums 1972-1979 (2013) [Vinyl Rip 16/44 & mp3-320]

Tracklist VNL04 - One Of These Nights - 1975:

4-01 - One Of These Nights
4-02 - Too Many Hands
4-03 - Hollywood Waltz
4-04 - Journey Of The Sorcerer
4-05 - Lyin Eyes
4-06 - Take It To The Limit
4-07 - Visions
4-08 - After The Thrill Is Gone
4-09 - I Wish You Peace

foobar2000 1.2.9 / Dynamic Range Meter 1.1.1
log date: 2017-11-08 18:13:41

––––––––––––––––––––––––––––––––––––––––
Analyzed: Eagles / One of These Nights (2013 Vinyl Box)
––––––––––––––––––––––––––––––––––––––––

DR Peak RMS Duration Track
––––––––––––––––––––––––––––––––––––––––
DR13 -0.82 dB -16.09 dB 4:52 01-One of These Nights
DR11 -1.36 dB -16.09 dB 4:41 02-Too Many Hands
DR13 -0.56 dB -16.85 dB 4:02 03-Hollywood Waltz
DR12 -0.24 dB -17.11 dB 6:38 04-Journey of the Sorcerer
DR12 -2.05 dB -15.99 dB 6:23 05-Lyin' Eyes
DR12 -0.62 dB -16.46 dB 4:47 06-Take It to the Limit
DR11 -0.25 dB -13.73 dB 3:59 07-Visions
DR13 -1.05 dB -17.85 dB 3:57 08-After the Thrill Is Gone
DR12 -1.65 dB -17.73 dB 3:46 09-I Wish You Peace
––––––––––––––––––––––––––––––––––––––––

Number of tracks: 9
Official DR value: DR12

Samplerate: 44100 Hz
Channels: 2
Bits per sample: 16
Bitrate: 797 kbps
Codec: FLAC
================================================================================



Eagles - The Studio Albums 1972-1979 (2013) [Vinyl Rip 16/44 & mp3-320]

Tracklist VNL05 - Hotel California - 1976:

5-01 - Hotel California
5-02 - New Kid In Town
5-03 - Life In The Fast Lane
5-04 - Wasted Time
5-05 - Wasted Time (Reprise)
5-06 - Victim Of Love
5-07 - Pretty Maids All In A Row
5-08 - Try And Love Again
5-09 - The Last Resort

foobar2000 1.2.9 / Dynamic Range Meter 1.1.1
log date: 2017-11-08 17:45:25

––––––––––––––––––––––––––––––––––––––––
Analyzed: Eagles / Hotel California (2013 Vinyl Box)
––––––––––––––––––––––––––––––––––––––––

DR Peak RMS Duration Track
––––––––––––––––––––––––––––––––––––––––
DR15 -0.98 dB -19.24 dB 6:32 01-Hotel California
DR14 -1.50 dB -18.37 dB 5:05 02-New Kid in Town
DR14 -0.26 dB -17.50 dB 4:46 03-Life in the Fast Lane
DR13 -2.10 dB -19.71 dB 4:57 04-Wasted Time
DR11 -3.36 dB -21.71 dB 1:24 05-Wasted Time (Reprise)
DR13 -1.20 dB -16.65 dB 4:14 06-Victim of Love
DR16 -1.26 dB -20.96 dB 3:55 07-Pretty Maids All in a Row
DR13 -0.33 dB -16.23 dB 5:11 08-Try and Love Again
DR13 -1.07 dB -18.23 dB 7:27 09-The Last Resort
––––––––––––––––––––––––––––––––––––––––

Number of tracks: 9
Official DR value: DR13

Samplerate: 44100 Hz
Channels: 2
Bits per sample: 16
Bitrate: 773 kbps
Codec: FLAC
================================================================================



Eagles - The Studio Albums 1972-1979 (2013) [Vinyl Rip 16/44 & mp3-320]

Tracklist VNL06 - The Long Run - 1979:

6-01 - The Long Run
6-02 - I Can't Tell You Why
6-03 - In The City
6-04 - Disco Strangler
6-05 - King Of Hollywood
6-06 - Heartache Tonight
6-07 - Those Shoes
6-08 - Teenage Jail
6-09 - The Greeks Don't Want No Freaks
6-10 - The Sad Cafe

foobar2000 1.2.9 / Dynamic Range Meter 1.1.1
log date: 2017-11-08 18:13:56

––––––––––––––––––––––––––––––––––––––––
Analyzed: Eagles / The Long Run (2013 Vinyl Box)
––––––––––––––––––––––––––––––––––––––––

DR Peak RMS Duration Track
––––––––––––––––––––––––––––––––––––––––
DR14 -0.39 dB -16.35 dB 3:42 01-The Long Run
DR15 -0.27 dB -18.17 dB 4:55 02-I Can't Tell You Why
DR13 -0.51 dB -15.99 dB 3:45 03-In the City
DR13 -1.95 dB -17.04 dB 2:46 04-The Disco Strangler
DR14 -0.49 dB -17.68 dB 6:27 05-King of Hollywood
DR13 -0.27 dB -15.58 dB 4:26 06-Heartache Tonight
DR14 -0.89 dB -16.90 dB 4:55 07-Those Shoes
DR14 -0.89 dB -17.35 dB 3:44 08-Teenage Jail
DR13 -0.74 dB -15.49 dB 2:20 09-The Greeks Don't Want No Freaks
DR14 -1.75 dB -17.82 dB 5:34 10-The Sad Cafe
––––––––––––––––––––––––––––––––––––––––

Number of tracks: 10
Official DR value: DR14

Samplerate: 44100 Hz
Channels: 2
Bits per sample: 16
Bitrate: 786 kbps
Codec: FLAC
================================================================================




Original ripper: ?
Original format: 24/96
Vinyl Condition: Mint, New Sealed
Cleaning:
Direct Drive Turntable: VPI TNT Mark IV
Cartridge: Lyra Clavis Da Capo MC
Amplifier: Musical Surroundings Nova Phenomena Battery Powere
ADC: Lavry AD11 external USB 2.0
Postprocessing: Click Repair 3.9

Downsampled to 16/44


All thanks go to the original releaser

Pink Floyd: Discography (1967 - 2014) [Vinyl Rip 16/44 & mp3-320]
Led Zeppelin: Discography (1969 - 1982) [Vinyl Rip 16/44 & mp3-320]
Manowar: Collection (1982 - 2012) [Vinyl Rip 16/44 & mp3-320]
A-HA: Collection (1985-2015) [Vinyl Rip 16/44 & mp3-320]


Decca, Wiener Philharmoniker - 6 Classic Analogue LPs (2014) [Vinyl Rip 16/44]
Beethoven - Chicago Symphony Orchestra / Sir Georg Solti ‎– The Nine Symphonies (1975) [Vinyl Rip 16/44 & mp3-320]
Scorpions: Collection (1974 - 2015) [Vinyl Rip 16/44 & mp3-320]
Pink Floyd - Echoes: The Best Of Pink Floyd (2001) [Vinyl Rip 16/44]
Alice Cooper - Paranormal (2017) [Vinyl Rip 16/44 & mp3-320]
Manfred Mann's Earth Band: Collection (1967 - 2014) [Vinyl Rip 16/44 & mp3-320]
Rainbow: Discography (1975 - 1986) [Vinyl Rip 16/44 & mp3-320]
Amanda Lear: Collection (1978 - 1986) [Vinyl Rip 16/44 & mp3-320]
Space & Didier Marouani: Collection (1977 - 1987) [Vinyl Rip 16/44 & mp3-320]
Rod Stewart: Collection (1969 - 1988) [Vinyl Rip 16/44 & mp3-320]
Kraftwerk: Collection (1974 - 1991) [Vinyl Rip 16/44 & mp3-320]
Roger Waters: Vinyl Collection (1970 - 1992) [Vinyl Rip 16/44 & mp3-320] [Vinyl Rip 16/44 & MP3-320]
David Gilmour - Rattle That Lock (2015) [Vinyl Rip 16/44 & mp3-320]
Depeche Mode: Collection (1981 - 2013) [Vinyl Rip 16/44 & mp3-320]
Sade: Discography (1984 - 2010) [Vinyl Rip 16/44 & MP3-320]
Queen: Collection (1973 - 1995) [Vinyl Rip 16/44 & MP3-320]
Metallica: Discography (1983 - 2016) [Vinyl Rip 16/44 & mp3-320]
The Doors: Collection (1967 - 1971) [Vinyl Rip 16/44 & mp3-320]
The Beatles: Discography (1963 - 1988) [Vinyl Rip 16/44 & mp3-320]
Joe Cocker: Collection (1969 - 1991) [Vinyl Rip 16/44 & mp3-320]
Dire Straits: Discography (1978 - 1991) [Vinyl Rip 16/44 & mp3-320]
Bonnie Tyler: Collection (1977 - 1986) [Vinyl Rip 16/44 & mp3-320]


Eagles or Eagles in my Blog

Download Eagles - The Studio Albums 1972-1979 (2013):