Subcategories

Bruford - Seems Like A Lifetime Ago 1977-1980 (2017) [6CD + 2DVD Box Set]

Posted By: v3122
Corriere della Sera Edizioni Locali - 6 Ottobre 2016

John Hackett - Another Life (2015)
EAC | Flac(Image) + Cue + Log & MP3 CBR 320Kbps
Esoteric Antenna, EANT21038 | ~ 297 or 115 Mb | Scans(png) -> 258 Mb
Progressive Rock

Limited eight disc (six CDs + two NTSC/Region DVDs) box set from the prog rock icon. This set contains previously unreleased, remixed, or remastered material from the Bruford band of the late 1970s, presented in a 12" box complete with 16-page color booklet and a signed, numbered certificate of authentication. Four gatefold sleeves contain two discs each: Disc 1 (DVD): Feels Good To Me: 5.1 surround sound mix and original 1978 mix remastered; Disc 2 (CD): Feels Good To Me: 2017 Jakko Jakszyk remix from original master tapes; Disc 3 (DVD): One of a Kind: 5.1 surround sound mix and original 1979 mix remastered plus additional audio; Disc 4 (CD): One of a Kind: 2017 Jakko Jakszyk remix from original master tapes; Disc 5 (CD): Gradually Going Tornado: remastered; Disc 6 (CD): The Bruford Tapes: remastered with bonus track; Disc 7 (CD): Live at the Venue: previously unreleased: recorded London 1980; Disc 8 (CD): The fourth Album Rehearsal Sessions: previously unreleased: eighteen sketches of new material recorded 1980. Also includes:16-page 12" booklet with a Sid Smith essay, new interviews with producer, engineer, band members, eyewitnesses and others, previously unseen archive visual material, and the complete band date sheet with contemporary critical reaction. Also two black and white 10" x 8" band photos, one A3 size color poster accompanying Live at the Venue, and one signed, numbered certificate of authentication. The boxed set is produced by Bill Bruford.

~ amazon
Corriere della Sera Edizioni Locali - 6 Ottobre 2016

Bruford - Seems Like A Lifetime Ago 1977-1980 (2017):

Corriere della Sera Edizioni Locali - 6 Ottobre 2016

Tracklist CD01 - 1978 Feels Good To Me:

01 Beelzebub
02 Back To The Beginning
03 Seems Like A Lifetime Ago: Part One
04 Seems Like A Lifetime Ago: Part Two
05 Sample And Hold
06 Feels Good To Me
07 Either End Of August
08 If You Can’t Stand The Heat…
09 Springtime In Siberia
10 Adios A La Pasada (Goodbye To The Past)

Exact Audio Copy V1.3 from 2. September 2016

EAC extraction logfile from 3. November 2017, 13:17

Bruford / Feels Good To Me

Used drive : PLEXTOR BD-R PX-B950SA Adapter: 1 ID: 1

Read mode : Secure
Utilize accurate stream : Yes
Defeat audio cache : Yes
Make use of C2 pointers : No

Read offset correction : 6
Overread into Lead-In and Lead-Out : No
Fill up missing offset samples with silence : Yes
Delete leading and trailing silent blocks : No
Null samples used in CRC calculations : Yes
Used interface : Native Win32 interface for Win NT & 2000

Used output format : Internal WAV Routines
Sample format : 44.100 Hz; 16 Bit; Stereo


TOC of the extracted CD

Track | Start | Length | Start sector | End sector
––––––––––––––––––––––––––––-
1 | 0:00.00 | 3:24.00 | 0 | 15299
2 | 3:24.00 | 7:24.00 | 15300 | 48599
3 | 10:48.00 | 2:32.16 | 48600 | 60015
4 | 13:20.16 | 4:33.50 | 60016 | 80540
5 | 17:53.66 | 5:20.00 | 80541 | 104540
6 | 23:13.66 | 3:56.56 | 104541 | 122296
7 | 27:10.47 | 6:05.47 | 122297 | 149718
8 | 33:16.19 | 3:40.00 | 149719 | 166218
9 | 36:56.19 | 2:44.59 | 166219 | 178577
10 | 39:41.03 | 8:41.28 | 178578 | 217680


Range status and errors

Selected range

Filename C:\Users\Alex\Desktop\ALLexxess\Bruford\2017 Seems Like A Lifetime Ago (8-Disc Box Set Winterfold Records)\Gatefold 1\1978 Feels Good To Me 2 Discs\CD\Bruford - Feels Good To Me.wav

Peak level 100.0 %
Extraction speed 6.9 X
Range quality 100.0 %
Test CRC 0197F32C
Copy CRC 0197F32C
Copy OK

No errors occurred


AccurateRip summary

Track 1 not present in database
Track 2 not present in database
Track 3 not present in database
Track 4 not present in database
Track 5 not present in database
Track 6 not present in database
Track 7 not present in database
Track 8 not present in database
Track 9 not present in database
Track 10 not present in database

None of the tracks are present in the AccurateRip database

End of status report

–– CUETools DB Plugin V2.1.6

[CTDB TOCID: _dUe3T.Ks7tj3JBUwQMu2P.EHdY-] disk not present in database
Submit result: _dUe3T.Ks7tj3JBUwQMu2P.EHdY- has been uploaded


==== Log checksum 239DAAB4FC4F1771A87408F0E815C8A36A535F7D7E4B571B5F8F7554318F7D46 ====


[CUETools log; Date: 09.11.2017 16:23:58; Version: 2.1.5]
[CTDB TOCID: _dUe3T.Ks7tj3JBUwQMu2P.EHdY-] found.
Track | CTDB Status
1 | (5/5) Accurately ripped
2 | (5/5) Accurately ripped
3 | (5/5) Accurately ripped
4 | (5/5) Accurately ripped
5 | (5/5) Accurately ripped
6 | (5/5) Accurately ripped
7 | (5/5) Accurately ripped
8 | (5/5) Accurately ripped
9 | (5/5) Accurately ripped
10 | (5/5) Accurately ripped
[AccurateRip ID: 001172c4-008c05a9-820b560a] disk not present in database.

Track Peak [ CRC32 ] [W/O NULL] [ LOG ]
– 100,0 [0197F32C] [1CA6ED76] CRC32
01 86,1 [F65F36EF] [356DF794]
02 100,0 [6A21DCBA] [F7829D86]
03 68,5 [8164DE27] [E33640A0]
04 100,0 [A9A8C269] [7D49294C]
05 100,0 [16C590B7] [0E5C40F2]
06 93,5 [29A1CA6A] [96DE4C60]
07 84,9 [DE245B03] [C29B823B]
08 89,1 [AA1AA557] [1B5D5230]
09 37,0 [D6965311] [9B0DC45F]
10 93,1 [1178BFC2] [3DF5CC9B]


Tracklist DVD01 - 1978 Feels Good To Me:

01 Beelzebub
02 Back To The Beginning
03 Seems Like A Lifetime Ago: Part One
04 Seems Like A Lifetime Ago: Part Two
05 Sample And Hold
06 Feels Good To Me
07 Either End Of August
08 If You Can’t Stand The Heat…
09 Springtime In Siberia
10 Adios A La Pasada (Goodbye To The Past)

Title: DVD01. 1978 - Feels Good To Me
Size: 2.22 Gb ( 2 326 574,00 KBytes ) - DVD-5
Enabled regions: 1, 2, 3, 4, 5, 6, 7, 8

VTS_01 :
Play Length: 00:00:04
Video: NTSC 16:9 (720x480) VBR, Auto Letterboxed

VTS_02 :
Play Length: 00:00:07
Video: NTSC 16:9 (720x480) VBR, Auto Letterboxed

VTS_03 :
Play Length: 00:48:16+{00:48:16}
Video: NTSC 16:9 (720x480) VBR, Auto Letterboxed
Audio:
Not specified (Dolby AC3, 6 ch)

VTS_04 :
Play Length: 00:47:09+{00:47:09}
Video: NTSC 16:9 (720x480) VBR, Auto Letterboxed
Audio:
Not specified (Dolby AC3, 2 ch)


Corriere della Sera Edizioni Locali - 6 Ottobre 2016

Tracklist CD02 - 1979 One Of A Kind:

1 Hell’s Bells
02 One Of A Kind: Part One
03 One Of A Kind: Part Two
04 Travels With Myself - And Someone Else
05 Fainting In Coils
06 Five G
07 The Abingdon Chasp
08 Forever Until Sunday
09 The Sahara Of Snow: Part One
10 The Sahara Of Snow: Part Two
Bonus Track
11 Five G (Out-Take) - previously unreleased: not on 2017 5.1 mix

Exact Audio Copy V1.3 from 2. September 2016

EAC extraction logfile from 3. November 2017, 11:54

Bruford / One Of A Kind

Used drive : PLEXTOR BD-R PX-B950SA Adapter: 1 ID: 1

Read mode : Secure
Utilize accurate stream : Yes
Defeat audio cache : Yes
Make use of C2 pointers : No

Read offset correction : 6
Overread into Lead-In and Lead-Out : No
Fill up missing offset samples with silence : Yes
Delete leading and trailing silent blocks : No
Null samples used in CRC calculations : Yes
Used interface : Native Win32 interface for Win NT & 2000

Used output format : Internal WAV Routines
Sample format : 44.100 Hz; 16 Bit; Stereo


TOC of the extracted CD

Track | Start | Length | Start sector | End sector
––––––––––––––––––––––––––––-
1 | 0:00.00 | 3:47.32 | 0 | 17056
2 | 3:47.32 | 2:20.15 | 17057 | 27571
3 | 6:07.47 | 4:01.60 | 27572 | 45706
4 | 10:09.32 | 6:15.18 | 45707 | 73849
5 | 16:24.50 | 6:54.00 | 73850 | 104899
6 | 23:18.50 | 4:46.19 | 104900 | 126368
7 | 28:04.69 | 4:51.59 | 126369 | 148252
8 | 32:56.53 | 5:47.46 | 148253 | 174323
9 | 38:44.24 | 5:21.39 | 174324 | 198437
10 | 44:05.63 | 3:24.36 | 198438 | 213773
11 | 47:30.24 | 4:39.01 | 213774 | 234699


Range status and errors

Selected range

Filename C:\Users\Alex\Desktop\ALLexxess\Bruford\2017 Seems Like A Lifetime Ago (8-Disc Box Set Winterfold Records)\Gatefold 2\1979 One Of A Kind 2 Discs\CD\Bruford - One Of A Kind.wav

Peak level 100.0 %
Extraction speed 7.1 X
Range quality 100.0 %
Test CRC 11D40547
Copy CRC 11D40547
Copy OK

No errors occurred


AccurateRip summary

Track 1 not present in database
Track 2 not present in database
Track 3 not present in database
Track 4 not present in database
Track 5 not present in database
Track 6 not present in database
Track 7 not present in database
Track 8 not present in database
Track 9 not present in database
Track 10 not present in database
Track 11 not present in database

None of the tracks are present in the AccurateRip database

End of status report

–– CUETools DB Plugin V2.1.6

[CTDB TOCID: M6nT7r.CuMPQPPgLrQ3c1VvMjIo-] disk not present in database
Submit result: M6nT7r.CuMPQPPgLrQ3c1VvMjIo- has been uploaded


==== Log checksum 2539C39E398C4E2CE268A5DB819EAE7A13157EE7A133BB99871851F7FBA496C8 ====


[CUETools log; Date: 09.11.2017 16:24:27; Version: 2.1.5]
[CTDB TOCID: M6nT7r.CuMPQPPgLrQ3c1VvMjIo-] found.
Track | CTDB Status
1 | (5/5) Accurately ripped
2 | (5/5) Accurately ripped
3 | (5/5) Accurately ripped
4 | (5/5) Accurately ripped
5 | (5/5) Accurately ripped
6 | (5/5) Accurately ripped
7 | (5/5) Accurately ripped
8 | (5/5) Accurately ripped
9 | (5/5) Accurately ripped
10 | (5/5) Accurately ripped
11 | (5/5) Accurately ripped
[AccurateRip ID: 0014d3d0-00b87b0e-a40c390b] disk not present in database.

Track Peak [ CRC32 ] [W/O NULL] [ LOG ]
– 100,0 [11D40547] [3186D596] CRC32
01 89,0 [81F9E7FD] [295D5084]
02 99,8 [F81F692F] [563A85CA]
03 98,9 [7E0E10B9] [788E46B1]
04 100,0 [4C4D56DC] [59943B7B]
05 77,7 [DBE55EB8] [E4589F18]
06 100,0 [2874FF34] [D927A79D]
07 100,0 [83D21EDB] [4BC98E5C]
08 95,2 [72AF8DFD] [88251A09]
09 94,0 [2DC27545] [1964890D]
10 98,3 [7C1264C9] [103A4A87]
11 97,7 [59DDB401] [22D82C7A]


Tracklist DVD02 - 1979 One Of A Kind:

1 Hell’s Bells
02 One Of A Kind: Part One
03 One Of A Kind: Part Two
04 Travels With Myself - And Someone Else
05 Fainting In Coils
06 Five G
07 The Abingdon Chasp
08 Forever Until Sunday
09 The Sahara Of Snow: Part One
10 The Sahara Of Snow: Part Two
Bonus Track
11 Five G (Out-Take) - previously unreleased: not on 2017 5.1 mix

Title: DVD02. 1979 - One Of A Kind
Size: 2.45 Gb ( 2 570 848,00 KBytes ) - DVD-5
Enabled regions: 1, 2, 3, 4, 5, 6, 7, 8

VTS_01 :
Play Length: 00:00:04
Video: NTSC 16:9 (720x480) VBR, Auto Letterboxed

VTS_02 :
Play Length: 00:00:07
Video: NTSC 16:9 (720x480) VBR, Auto Letterboxed

VTS_03 :
Play Length: 00:47:06+{00:47:06}
Video: NTSC 16:9 (720x480) VBR, Auto Letterboxed
Audio:
Not specified (Dolby AC3, 6 ch)

VTS_04 :
Play Length: 00:51:49+{00:51:49}
Video: NTSC 16:9 (720x480) VBR, Auto Letterboxed
Audio:
Not specified (Dolby AC3, 2 ch)


Corriere della Sera Edizioni Locali - 6 Ottobre 2016

Tracklist CD03 - Gradually Going Tornado:

01 Age Of Information
02 Gothic 17
03 Joe Frazier
04 Q.E.D.
05 The Sliding Floor
06 Palewell Park
07 Plans For J.D.
08 Land’s End

Exact Audio Copy V1.3 from 2. September 2016

EAC extraction logfile from 3. November 2017, 10:07

Bruford / Gradually Going Tornado

Used drive : PLEXTOR BD-R PX-B950SA Adapter: 1 ID: 1

Read mode : Secure
Utilize accurate stream : Yes
Defeat audio cache : Yes
Make use of C2 pointers : No

Read offset correction : 6
Overread into Lead-In and Lead-Out : No
Fill up missing offset samples with silence : Yes
Delete leading and trailing silent blocks : No
Null samples used in CRC calculations : Yes
Used interface : Native Win32 interface for Win NT & 2000

Used output format : Internal WAV Routines
Sample format : 44.100 Hz; 16 Bit; Stereo


TOC of the extracted CD

Track | Start | Length | Start sector | End sector
––––––––––––––––––––––––––––-
1 | 0:00.00 | 4:51.17 | 0 | 21841
2 | 4:51.17 | 5:08.13 | 21842 | 44954
3 | 9:59.30 | 4:45.47 | 44955 | 66376
4 | 14:45.02 | 7:50.28 | 66377 | 101654
5 | 22:35.30 | 5:03.15 | 101655 | 124394
6 | 27:38.45 | 4:00.60 | 124395 | 142454
7 | 31:39.30 | 4:02.32 | 142455 | 160636
8 | 35:41.62 | 10:19.10 | 160637 | 207071


Range status and errors

Selected range

Filename C:\Users\Alex\Desktop\ALLexxess\Bruford\2017 Seems Like A Lifetime Ago (8-Disc Box Set Winterfold Records)\Gatefold 3\1980 Gradually Going Tornado\Bruford - Gradually Going Tornado.wav

Peak level 95.5 %
Extraction speed 6.8 X
Range quality 100.0 %
Test CRC 71A0270B
Copy CRC 71A0270B
Copy OK

No errors occurred


AccurateRip summary

Track 1 cannot be verified as accurate (confidence 15) [A25A5B3A], AccurateRip returned [BBB730E8] (AR v2)
Track 2 cannot be verified as accurate (confidence 15) [2CECA0A8], AccurateRip returned [18C92F02] (AR v2)
Track 3 cannot be verified as accurate (confidence 15) [311A45F9], AccurateRip returned [DA46E924] (AR v2)
Track 4 cannot be verified as accurate (confidence 15) [6CB8E146], AccurateRip returned [25E4D897] (AR v2)
Track 5 cannot be verified as accurate (confidence 15) [F7E82A00], AccurateRip returned [B3641EFF] (AR v2)
Track 6 cannot be verified as accurate (confidence 15) [E85552B9], AccurateRip returned [61552504] (AR v2)
Track 7 cannot be verified as accurate (confidence 15) [3F6E4F5E], AccurateRip returned [1BD8FFF3] (AR v2)
Track 8 cannot be verified as accurate (confidence 15) [BA215F76], AccurateRip returned [D5D79C95] (AR v2)

No tracks could be verified as accurate
You may have a different pressing from the one(s) in the database

End of status report

–– CUETools DB Plugin V2.1.6

[CTDB TOCID: kNDn69m9DH4X0.2Q_BJXYNZRHEY-] found
Submit result: kNDn69m9DH4X0.2Q_BJXYNZRHEY- has been confirmed
Track | CTDB Status
1 | (24/24) Accurately ripped
2 | (24/24) Accurately ripped
3 | (24/24) Accurately ripped
4 | (23/24) Accurately ripped
5 | (23/24) Accurately ripped
6 | (22/24) Accurately ripped
7 | (22/24) Accurately ripped
8 | (23/24) Accurately ripped


==== Log checksum 7C941EDB986AF9CBDC6D67BA84C964B3B76D52292C1DC03CF67927CC113D9059 ====


[CUETools log; Date: 09.11.2017 16:24:58; Version: 2.1.5]
[CTDB TOCID: kNDn69m9DH4X0.2Q_BJXYNZRHEY-] found.
Track | CTDB Status
1 | (29/29) Accurately ripped
2 | (29/29) Accurately ripped
3 | (29/29) Accurately ripped
4 | (28/29) Accurately ripped
5 | (28/29) Accurately ripped
6 | (27/29) Accurately ripped
7 | (27/29) Accurately ripped
8 | (28/29) Accurately ripped
[AccurateRip ID: 000d440c-00592e98-600ac808] found.
Track [ CRC | V2 ] Status
01 [06d17539|a25a5b3a] (00+00/29) No match
02 [628b31a3|2ceca0a8] (00+00/29) No match
03 [d38ea4f0|311a45f9] (00+00/29) No match
04 [dc91e4cd|6cb8e146] (00+00/29) No match
05 [90945164|f7e82a00] (00+00/29) No match
06 [0d184456|e85552b9] (00+00/29) No match
07 [5c07a93f|3f6e4f5e] (00+00/29) No match
08 [06a50480|ba215f76] (00+00/29) No match
Offsetted by 150:
01 [6156833c] (02/29) Accurately ripped
02 [65c689da] (02/29) Accurately ripped
03 [f0fc0805] (02/29) Accurately ripped
04 [62f4f510] (02/29) Accurately ripped
05 [f58076dc] (02/29) Accurately ripped
06 [58e705fc] (02/29) Accurately ripped
07 [55db39f2] (02/29) Accurately ripped
08 [dced2f34] (02/29) Accurately ripped
Offsetted by 168:
01 [282299f8] (10/29) Accurately ripped
02 [4d340453] (10/29) Accurately ripped
03 [75f87e0d] (10/29) Accurately ripped
04 [7cf5e6a9] (10/29) Accurately ripped
05 [3da09115] (10/29) Accurately ripped
06 [820f6925] (10/29) Accurately ripped
07 [21fa4b1a] (10/29) Accurately ripped
08 [07a32467] (10/29) Accurately ripped
Offsetted by 156:
01 [9a63a66f] (00/29) No match (V2 was not tested)
02 [8bbadbe9] (00/29) No match (V2 was not tested)
03 [888653af] (00/29) No match (V2 was not tested)
04 [f9b8e92c] (00/29) No match (V2 was not tested)
05 [f794867d] (00/29) No match (V2 was not tested)
06 [83be9fa9] (00/29) No match (V2 was not tested)
07 [10163bd4] (00/29) No match (V2 was not tested)
08 [5a009bf3] (00/29) No match (V2 was not tested)

Track Peak [ CRC32 ] [W/O NULL] [ LOG ]
– 95,5 [71A0270B] [E2740704] CRC32
01 94,0 [59FC5D1C] [FEA0D2C9]
02 89,9 [4B7A5F6B] [5F7CE2A3]
03 95,5 [FA9E02E3] [393F1A9A]
04 95,5 [EA3D885D] [27145111]
05 95,5 [2CA6671E] [69072211]
06 56,2 [F5FD5EB9] [9667D456]
07 95,5 [A1E90690] [27DC0716]
08 95,5 [93B3A703] [6E61BE96]


Tracklist CD04 - 1980 The Bruford Tapes:

01 Hell’s Bells
02 Sample And Hold
03 Fainting In Coils
04 Travels With Myself - And Someone Else
05 Beelzebub
06 The Sahara Of Snow: Part One
07 The Sahara Of Snow: Part Two
08 One Of A Kind: Part Two
09 Five G
Bonus Track
10 Manacles (Live)

Exact Audio Copy V1.3 from 2. September 2016

EAC extraction logfile from 3. November 2017, 9:39

Bruford / The Bruford Tapes

Used drive : PLEXTOR BD-R PX-B950SA Adapter: 1 ID: 1

Read mode : Secure
Utilize accurate stream : Yes
Defeat audio cache : Yes
Make use of C2 pointers : No

Read offset correction : 6
Overread into Lead-In and Lead-Out : No
Fill up missing offset samples with silence : Yes
Delete leading and trailing silent blocks : No
Null samples used in CRC calculations : Yes
Used interface : Native Win32 interface for Win NT & 2000

Used output format : Internal WAV Routines
Sample format : 44.100 Hz; 16 Bit; Stereo


TOC of the extracted CD

Track | Start | Length | Start sector | End sector
––––––––––––––––––––––––––––-
1 | 0:00.00 | 4:35.37 | 0 | 20661
2 | 4:35.37 | 6:35.38 | 20662 | 50324
3 | 11:11.00 | 7:25.05 | 50325 | 83704
4 | 18:36.05 | 4:38.40 | 83705 | 104594
5 | 23:14.45 | 3:52.55 | 104595 | 122049
6 | 27:07.25 | 5:05.15 | 122050 | 144939
7 | 32:12.40 | 3:32.02 | 144940 | 160841
8 | 35:44.42 | 8:45.15 | 160842 | 200231
9 | 44:29.57 | 2:38.63 | 200232 | 212144
10 | 47:08.45 | 7:26.00 | 212145 | 245594


Range status and errors

Selected range

Filename C:\Users\Alex\Desktop\ALLexxess\Bruford\2017 Seems Like A Lifetime Ago (8-Disc Box Set Winterfold Records)\Gatefold 3\1980 The Bruford Tapes\Bruford - The Bruford Tapes.wav

Peak level 98.9 %
Extraction speed 7.1 X
Range quality 100.0 %
Test CRC 41BD35B9
Copy CRC 41BD35B9
Copy OK

No errors occurred


AccurateRip summary

Track 1 not present in database
Track 2 not present in database
Track 3 not present in database
Track 4 not present in database
Track 5 not present in database
Track 6 not present in database
Track 7 not present in database
Track 8 not present in database
Track 9 not present in database
Track 10 not present in database

None of the tracks are present in the AccurateRip database

End of status report

–– CUETools DB Plugin V2.1.6

[CTDB TOCID: udKUz_I05njPeLxCl16Xel8GxVM-] disk not present in database
Submit result: udKUz_I05njPeLxCl16Xel8GxVM- has been uploaded


==== Log checksum 1A5102C078156C79C341AACCA631428C37928040496C635794597822C3F4D227 ====


[CUETools log; Date: 09.11.2017 16:25:54; Version: 2.1.5]
[CTDB TOCID: udKUz_I05njPeLxCl16Xel8GxVM-] found.
Track | CTDB Status
1 | (5/5) Accurately ripped
2 | (5/5) Accurately ripped
3 | (5/5) Accurately ripped
4 | (5/5) Accurately ripped
5 | (5/5) Accurately ripped
6 | (5/5) Accurately ripped
7 | (5/5) Accurately ripped
8 | (5/5) Accurately ripped
9 | (5/5) Accurately ripped
10 | (5/5) Accurately ripped
[AccurateRip ID: 00148643-00a3673a-8d0cca0a] disk not present in database.

Track Peak [ CRC32 ] [W/O NULL] [ LOG ]
– 98,9 [41BD35B9] [1A459F1E] CRC32
01 98,8 [871B4B03] [E85F7E9C]
02 98,8 [177B74BD] [75086EA5]
03 98,9 [4A8A5623] [2426CEDD]
04 98,9 [90C834A6] [44E1054C]
05 98,8 [CE16BA29] [6D54FD07]
06 98,8 [82C13064] [E1306A4B]
07 98,8 [E5476807] [55D526CC]
08 98,8 [D58CFE40] [85B68C20]
09 98,8 [19D42D3F] [4774807A]
10 98,8 [F9428DFB] [B694EB67]


Corriere della Sera Edizioni Locali - 6 Ottobre 2016

Tracklist CD05 - 1980 Live At The Venue:

01 Hell’s Bells
02 Sample And Hold
03 Land’s End
04 Joe Frazier
05 Gothic 17
06 Plans For J.D.
07 Age Of Information
08 Five G

Exact Audio Copy V1.3 from 2. September 2016

EAC extraction logfile from 2. November 2017, 20:30

Bruford / Live At The Venue

Used drive : PLEXTOR BD-R PX-B950SA Adapter: 1 ID: 1

Read mode : Secure
Utilize accurate stream : Yes
Defeat audio cache : Yes
Make use of C2 pointers : No

Read offset correction : 6
Overread into Lead-In and Lead-Out : No
Fill up missing offset samples with silence : Yes
Delete leading and trailing silent blocks : No
Null samples used in CRC calculations : Yes
Used interface : Native Win32 interface for Win NT & 2000

Used output format : Internal WAV Routines
Sample format : 44.100 Hz; 16 Bit; Stereo


TOC of the extracted CD

Track | Start | Length | Start sector | End sector
––––––––––––––––––––––––––––-
1 | 0:00.00 | 5:03.61 | 0 | 22785
2 | 5:03.61 | 9:24.26 | 22786 | 65111
3 | 14:28.12 | 7:22.73 | 65112 | 98334
4 | 21:51.10 | 5:26.08 | 98335 | 122792
5 | 27:17.18 | 5:37.08 | 122793 | 148075
6 | 32:54.26 | 3:41.61 | 148076 | 164711
7 | 36:36.12 | 7:42.05 | 164712 | 199366
8 | 44:18.17 | 6:08.62 | 199367 | 227028


Range status and errors

Selected range

Filename C:\Users\Alex\Desktop\ALLexxess\Bruford\2017 Seems Like A Lifetime Ago (8-Disc Box Set Winterfold Records)\Gatefold 4\1980 Live At The Venue\Bruford - Live At The Venue.wav

Peak level 98.9 %
Extraction speed 7.0 X
Range quality 100.0 %
Test CRC 478DF103
Copy CRC 478DF103
Copy OK

No errors occurred


AccurateRip summary

Track 1 not present in database
Track 2 not present in database
Track 3 not present in database
Track 4 not present in database
Track 5 not present in database
Track 6 not present in database
Track 7 not present in database
Track 8 not present in database

None of the tracks are present in the AccurateRip database

End of status report

–– CUETools DB Plugin V2.1.6

[CTDB TOCID: njNiobUMOfdxPgnfNnRIS7aXiuU-] disk not present in database
Submit result: njNiobUMOfdxPgnfNnRIS7aXiuU- has been uploaded


==== Log checksum 7169FCF6EB11897B6C26339A9DF3AFC88D3177761C82164DA07C1CBC0C6884A8 ====


[CUETools log; Date: 09.11.2017 16:26:35; Version: 2.1.5]
[CTDB TOCID: njNiobUMOfdxPgnfNnRIS7aXiuU-] found.
Track | CTDB Status
1 | (5/5) Accurately ripped
2 | (5/5) Accurately ripped
3 | (5/5) Accurately ripped
4 | (5/5) Accurately ripped
5 | (5/5) Accurately ripped
6 | (5/5) Accurately ripped
7 | (5/5) Accurately ripped
8 | (5/5) Accurately ripped
[AccurateRip ID: 000ffe92-0069b5eb-6d0bd308] disk not present in database.

Track Peak [ CRC32 ] [W/O NULL] [ LOG ]
– 98,9 [478DF103] [5B5BCEE4] CRC32
01 98,8 [465EC9C3] [708DA9F6]
02 98,8 [EC4EA98C] [B2E7D63F]
03 98,8 [AD9D5AF7] [70207AC2]
04 98,8 [169BD152] [08D8B22E]
05 98,8 [736540F6] [AE38E0B1]
06 98,8 [81F6837C] [BC05AAC8]
07 98,8 [38A31F66] [C973D40A]
08 98,9 [794FF686] [5ADFB9A2]


Tracklist CD06 - 2017 4th Album Rehearsal Sessions:

01 Hell's Midriff
02 Sketch 1
03 Restless Spirit
04 Hope
05 Consequential Circuits
06 Matching Green
07 Should've Been Something
08 There Is No Reward (Instrumental)
09 Hooligan Juice 1
10 Hooligan Juice 2
11 Flat Bells, Claptrap And Trills
12 Sketch 2
13 Bedrock
14 Plotting The Heavens
15 Marrowbones And Cleavers
16 Prophet Motive
17 Sketch 1 (Reprise)
18 Saturday, No School

Exact Audio Copy V1.3 from 2. September 2016

EAC extraction logfile from 2. November 2017, 19:50

Bruford / 4th Album Rehearsal Sessions

Used drive : PLEXTOR BD-R PX-B950SA Adapter: 1 ID: 1

Read mode : Secure
Utilize accurate stream : Yes
Defeat audio cache : Yes
Make use of C2 pointers : No

Read offset correction : 6
Overread into Lead-In and Lead-Out : No
Fill up missing offset samples with silence : Yes
Delete leading and trailing silent blocks : No
Null samples used in CRC calculations : Yes
Used interface : Native Win32 interface for Win NT & 2000

Used output format : Internal WAV Routines
Sample format : 44.100 Hz; 16 Bit; Stereo


TOC of the extracted CD

Track | Start | Length | Start sector | End sector
––––––––––––––––––––––––––––-
1 | 0:01.74 | 1:17.46 | 149 | 5969
2 | 1:19.45 | 0:54.65 | 5970 | 10084
3 | 2:14.35 | 3:44.36 | 10085 | 26920
4 | 5:58.71 | 2:56.20 | 26921 | 40140
5 | 8:55.16 | 1:31.66 | 40141 | 47031
6 | 10:27.07 | 3:53.38 | 47032 | 64544
7 | 14:20.45 | 1:26.00 | 64545 | 70994
8 | 15:46.45 | 2:18.43 | 70995 | 81387
9 | 18:05.13 | 4:32.56 | 81388 | 101843
10 | 22:37.69 | 2:05.09 | 101844 | 111227
11 | 24:43.03 | 2:45.53 | 111228 | 123655
12 | 27:28.56 | 1:25.54 | 123656 | 130084
13 | 28:54.35 | 1:48.66 | 130085 | 138250
14 | 30:43.26 | 1:55.68 | 138251 | 146943
15 | 32:39.19 | 1:32.01 | 146944 | 153844
16 | 34:11.20 | 4:02.62 | 153845 | 172056
17 | 38:14.07 | 0:53.69 | 172057 | 176100
18 | 39:08.01 | 0:56.69 | 176101 | 180369


Range status and errors

Selected range

Filename C:\Users\Alex\Desktop\ALLexxess\Bruford\2017 Seems Like A Lifetime Ago (8-Disc Box Set Winterfold Records)\Gatefold 4\2017 4th Album Rehearsal Sessions\Bruford - 4th Album Rehearsal Sessions.wav

Peak level 98.8 %
Extraction speed 6.6 X
Range quality 100.0 %
Test CRC 8B49C27C
Copy CRC 8B49C27C
Copy OK

No errors occurred


AccurateRip summary

Track 1 not present in database
Track 2 not present in database
Track 3 not present in database
Track 4 not present in database
Track 5 not present in database
Track 6 not present in database
Track 7 not present in database
Track 8 not present in database
Track 9 not present in database
Track 10 not present in database
Track 11 not present in database
Track 12 not present in database
Track 13 not present in database
Track 14 not present in database
Track 15 not present in database
Track 16 not present in database
Track 17 not present in database
Track 18 not present in database

None of the tracks are present in the AccurateRip database

End of status report

–– CUETools DB Plugin V2.1.6

[CTDB TOCID: nRQ96nrpUo2Z3WBp0my4D1vVJ0w-] disk not present in database
Submit result: nRQ96nrpUo2Z3WBp0my4D1vVJ0w- has been uploaded


==== Log checksum 59AA0EC3198888F92BDDDF295C6B48C1D71C1232E33A8B81D7AF8F0CB25CB15C ====


[CUETools log; Date: 09.11.2017 16:27:09; Version: 2.1.5]
Pregap length 00:01:74.
[CTDB TOCID: nRQ96nrpUo2Z3WBp0my4D1vVJ0w-] found.
Track | CTDB Status
1 | (5/5) Accurately ripped
2 | (5/5) Accurately ripped
3 | (5/5) Accurately ripped
4 | (5/5) Accurately ripped
5 | (5/5) Accurately ripped
6 | (5/5) Accurately ripped
7 | (5/5) Accurately ripped
8 | (5/5) Accurately ripped
9 | (5/5) Accurately ripped
10 | (5/5) Accurately ripped
11 | (5/5) Accurately ripped
12 | (5/5) Accurately ripped
13 | (5/5) Accurately ripped
14 | (5/5) Accurately ripped
15 | (5/5) Accurately ripped
16 | (5/5) Accurately ripped
17 | (5/5) Accurately ripped
18 | (5/5) Accurately ripped
[AccurateRip ID: 001b2f67-016d1188-00096312] disk not present in database.

Track Peak [ CRC32 ] [W/O NULL] [ LOG ]
– 98,8 [8B49C27C] [45268EB2] CRC32
01 98,8 [CFFEEE87] [D4DF7E74]
02 98,8 [41869CC8] [A3A41A97]
03 98,8 [50B0BDB0] [5BC6BDC0]
04 98,8 [4FEB9D67] [87F8C361]
05 98,8 [C485DF38] [8E2A9843]
06 98,8 [EC4EF991] [E828A782]
07 98,8 [D579A573] [C3017C59]
08 98,8 [3A779106] [055DDA09]
09 98,8 [48183514] [4245C381]
10 98,8 [D21E7530] [915DAC6E]
11 98,8 [B534551E] [F96BAB99]
12 98,8 [8FF653F1] [B3A4B0D0]
13 98,8 [3F5619A2] [63FA1566]
14 98,8 [C8E12667] [2DC37D7D]
15 98,8 [AF913790] [9843146C]
16 98,8 [70ED656C] [A4384F28]
17 98,8 [530F05DD] [2A37A629]
18 98,8 [FBB484AD] [48D87C8B]



All thanks go to ALLexxess

Bruford or Bruford in my Blog

Download Bruford - Seems Like A Lifetime Ago 1977-1980 (2017):