Subcategories

Bob Dylan - Trouble No More: The Bootleg Series, Vol. 13 - 1979-1981 (2017) [Official Digital Download 24-96]

Posted By: HDV
Bob Dylan - Trouble No More: The Bootleg Series, Vol. 13 - 1979-1981 (2017) [Official Digital Download 24-96]

Bob Dylan - Trouble No More: The Bootleg Series, Vol. 13 - 1979-1981 (2017) [Deluxe Edition]
FLAC (tracks) 24-bit/96 kHz | Time - 491:04 minutes | 8,31 GB
Studio Master, Official Digital Download | Artwork: Front cover

8CD Deluxe Edition box set - the next installment in the award-winning Bootleg Series. "Trouble No More - The Bootleg Series Vol. 13 / 1979-1981", focuses on the albums 'Slow Train Coming' (1979), 'Saved' (1980) and 'Shot of Love' (1981) and the legendary live shows from that period.

Bob Dylan converted to Christianity in 1979. Like many who have been born again, Dylan spoke and sang solely of his faith for a brief period – roughly half a year, beginning in November of 1979 and ending in May of 1980. Facing a fan base who were generally furious at his newfound religion, Dylan started to thread some oldies into his set lists but he didn't leave gospel behind until he released Infidels in 1983. Once he returned to secular music, he didn't abandon all the songs that he wrote during this period – and it's also unclear what became of his faith, as he stopped speaking of it in concrete terms in public – yet these three years remained one of Dylan's least understood phases, possibly because the studio albums he released between 1979 and 1981 were cocooned in studio gloss. Trouble No More, the 13th installment of The Bootleg Series, attempts to right the record by collecting a wealth of live material from this period, supplementing these cuts with unreleased studio tracks, including a few songs that have never seen the light of day.

Whether it's appreciated in its lavish eight-CD box set or its judiciously edited double-disc companion, Trouble No More performs the same function: it illuminates the passion driving this music. Unlike Another Self Portrait, this Bootleg Series installment offers a different perspective of a maligned phase, but it doesn't provide a jolting revelation, not even with several unveiled Dylan originals in tow. A few of these songs would've enhanced either Saved or Shot of Love – in particular, "Ain't Gonna Go to Hell for Anybody" feels robust as it dodges confession – but the execution matters more than the content. Dylan did write a handful of classics during this time but the tunes tend to be overshadowed by the ragged, soulful performances, where the songs – both major and minor – get reshaped on-stage and in the studio. The band impresses – this music, which sounded so slick on the released records, has grit, swing and soul – but they're only following their leader, who is chasing a muse that may still remain elusive to his audience. Dylan may not articulate his conversion in words – these are among his stiffest lyrics, allowing no room for ambiguity yet still bearing some playfulness – but Trouble No More, more than Saved or even the fine Slow Train Coming, is buoyed by the music. Whether he's singing a slight song, easing into testimony, or leaning into a blues, Dylan seems engaged, even on the verge of rapture, an excitement that carries through the full live shows from 1980 and 1981 on the Deluxe Edition, where he reworks his old tunes – "Maggie's Farm" is driven by a wild, twisting riff – in hopes that they open the door to his new thing. Few appreciated his trip at the time, but years later it feels compelling, possibly because it's allowed to be messy and soulful within the parameters of The Bootleg Series.

Tracklist

Disc 1 - Live:
001 - Slow Train (Live Nov. 16, 1979)
002 - Gotta Serve Somebody (Live Nov. 15, 1979)
003 - I Believe In You (Live May 16, 1980)
004 - When You Gonna Wake Up? (Live July 9, 1981)
005 - When He Returns (Live Dec. 5, 1979)
006 - Man Gave Names to All the Animals (Live Jan. 16, 1980)
007 - Precious Angel (Live Nov. 16, 1979)
008 - Covenant Woman (Live Nov. 20, 1979)
009 - Gonna Change My Way of Thinking (Live Jan. 31, 1980)
010 - Do Right to Me Baby (Do Unto Others) (Live Jan. 28, 1980)
011 - Solid Rock (Live Nov. 27, 1979)
012 - What Can I Do for You? (Live Nov. 27, 1979)
013 - Saved (Live Jan. 12, 1980)
014 - In the Garden (Live Jan. 27, 1980)

Disc 2 - Live:
015 - Slow Train (Live June 29, 1981)
016 - Ain't Gonna Go to Hell for Anybody (Live Apr. 24, 1980)
017 - Gotta Serve Somebody (Live June 27, 1981)
018 - Ain't No Man Righteous, No Not One (Live Nov. 16, 1979)
019 - Saving Grace (Live Nov. 6, 1979)
020 - Blessed Is the Name (Live Nov. 20, 1979)
021 - Solid Rock (Live Oct. 23, 1981)
022 - Are You Ready? (Live Apr. 30, 1980)
023 - Pressing On (Live Nov. 6, 1979)
024 - Shot of Love (Live July 25, 1981)
025 - Dead Man, Dead Man (Live June 21, 1981)
026 - Watered-Down Love (Live June 12, 1981)
027 - In the Summertime (Live Oct. 21, 1981)
028 - The Groom's Still Waiting at the Altar (Live Nov. 13, 1980)
029 - Caribbean Wind (Live Nov. 12, 1980)
030 - Every Grain of Sand (Live Nov. 21, 1981)

Disc 3 - Rare & Unreleased:
031 - Slow Train (Soundcheck)
032 - Do Right to Me Baby (Do Unto Others) (Soundcheck)
033 - Help Me Understand (Soundcheck)
034 - Gonna Change My Way of Thinking (Rehearsal with horns)
035 - Gotta Serve Somebody (Take 1)
036 - When He Returns (Take 2)
037 - Ain't No Man Righteous, No Not One (Take 6)
038 - Trouble In Mind (Take 1)
039 - Ye Shall Be Changed (Outtake)
040 - Covenant Woman (Take 3)
041 - Stand by Faith (Rehearsal)
042 - I Will Love Him (Live Apr. 19, 1980)
043 - Jesus Is the One (Live July 17, 1981)
044 - City of Gold (Live Nov. 22, 1980)
045 - Thief on the Cross (Live Nov. 10, 1981)
046 - Pressing On (Take 1)

Disc 4 - Rare & Unreleased:
047 - Slow Train (Rehearsal with horns)
048 - Gotta Serve Somebody (Rehearsal with horns)
049 - Making a Liar Out of Me (Rehearsal)
050 - Yonder Comes Sin (Rehearsal)
051 - Radio Spot for January 1980, Portland, OR show
052 - Cover Down, Pray Through (Live May 1, 1980)
053 - Rise Again (Rehearsal)
054 - Ain't Gonna Go to Hell for Anybody (Live Dec. 2, 1980)
055 - The Groom's Still Waiting at the Altar (Take 2)
056 - Caribbean Wind (Rehearsal with pedal steel)
057 - You Changed My Life (Take 4)
058 - Shot of Love (Outtake)
059 - Watered-Down Love (Outtake)
060 - Dead Man, Dead Man (Outtake)
061 - Every Grain of Sand (Rehearsal)

Disc 5 - Live In Toronto 1980:
062 - Gotta Serve Somebody (Live in Toronto)
063 - I Believe in You (Live in Toronto)
064 - Covenant Woman (Live in Toronto)
065 - When You Gonna Wake Up? (Live in Toronto)
066 - When He Returns (Live in Toronto)
067 - Ain't Gonna Go to Hell for Anybody (Live in Toronto)
068 - Cover Down, Pray Through (Live in Toronto)
069 - Man Gave Names to All the Animals (Live in Toronto)
070 - Precious Angel (Live in Toronto)

Disc 6 - Live In Toronto 1980:
071 - Slow Train (Live in Toronto)
072 - Do Right to Me Baby (Do Unto Others) (Live in Toronto)
073 - Solid Rock (Live in Toronto)
074 - Saving Grace (Live in Toronto)
075 - What Can I Do for You? (Live in Toronto)
076 - In the Garden (Live in Toronto)
077 - Band Introductions (Live in Toronto)
078 - Are You Ready? (Live in Toronto)
079 - Pressing On (Live in Toronto)

Disc 7 - Live In Earl's Court, London, June 27, 1981:
080 - Gotta Serve Somebody (Live in London)
081 - I Believe in You (Live in London)
082 - Like a Rolling Stone (Live in London)
083 - Man Gave Names to All the Animals (Live in London)
084 - Maggie's Farm (Live in London)
085 - I Don't Believe You (She Acts Like We Never Have Met) (Live in London)
086 - Dead Man, Dead Man (Live in London)
087 - Girl from the North Country (Live in London)
088 - Ballad of a Thin Man (Live in London)

Disc 8 - Live In Earl's Court, London, June 27, 1981:
089 - Slow Train (Live in London)
090 - Let's Begin (Live in London)
091 - Lenny Bruce (Live in London)
092 - Mr. Tambourine Man (Live in London)
093 - Solid Rock (Live in London)
094 - Just Like a Woman (Live in London)
095 - Watered-Down Love (Live in London)
096 - Forever Young (Live in London)
097 - When You Gonna Wake Up? (Live in London)
098 - In the Garden (Live in London)
099 - Band Introductions (Live in London)
100 - Blowin' in the Wind (Live in London)
101 - It's All Over Now, Baby Blue (Live in London)
102 - Knockin' on Heaven's Door (Live in London)

PLEASE NOTE: Tracks "17,23,27,34,36,53,77,80,83,84,96" presented in 24-bit/44kHz.


Analyzed: Bob Dylan / Trouble No More: The Bootleg Series, Vol. 13 / 1979-1981 (Deluxe Edition)
––––––––––––––––––––––––––––––––––––––––

DR Peak RMS Duration Track
––––––––––––––––––––––––––––––––––––––––
DR8 -2.51 dB -13.44 dB 6:20 001-Slow Train (Live Nov. 16, 1979)
DR9 -1.80 dB -12.77 dB 6:29 002-Gotta Serve Somebody (Live Nov. 15, 1979)
DR12 -0.05 dB -15.56 dB 4:51 003-I Believe In You (Live May 16, 1980)
DR8 -4.55 dB -15.70 dB 5:28 004-When You Gonna Wake Up? (Live July 9, 1981)
DR14 -3.82 dB -21.43 dB 5:00 005-When He Returns (Live Dec. 5, 1979)
DR13 -0.80 dB -16.49 dB 5:45 006-Man Gave Names to All the Animals (Live Jan. 16, 1980)
DR10 -2.68 dB -15.40 dB 5:40 007-Precious Angel (Live Nov. 16, 1979)
DR14 -1.04 dB -19.31 dB 5:51 008-Covenant Woman (Live Nov. 20, 1979)
DR10 -1.13 dB -12.60 dB 4:47 009-Gonna Change My Way of Thinking (Live Jan. 31, 1980)
DR11 -0.40 dB -14.91 dB 5:08 010-Do Right to Me Baby (Do Unto Others) (Live Jan. 28, 1980)
DR10 -1.75 dB -13.71 dB 4:42 011-Solid Rock (Live Nov. 27, 1979)
DR12 -1.74 dB -17.59 dB 5:53 012-What Can I Do for You? (Live Nov. 27, 1979)
DR10 -1.72 dB -13.03 dB 4:48 013-Saved (Live Jan. 12, 1980)
DR8 -1.68 dB -13.56 dB 6:33 014-In the Garden (Live Jan. 27, 1980)
––––––––––––––––––––––––––––––––––––––––

Number of tracks: 14
Official DR value: DR11

Samplerate: 96000 Hz
Channels: 2
Bits per sample: 24
Bitrate: 1402 kbps
Codec: FLAC
================================================================================

Analyzed: Bob Dylan / Trouble No More: The Bootleg Series, Vol. 13 / 1979-1981 (Deluxe Edition)
––––––––––––––––––––––––––––––––––––––––

DR Peak RMS Duration Track
––––––––––––––––––––––––––––––––––––––––
DR11 -3.20 dB -16.39 dB 3:57 017-Gotta Serve Somebody (Live June 27, 1981)
DR11 -4.08 dB -21.34 dB 6:52 023-Pressing On (Live Nov. 6, 1979)
DR12 -2.73 dB -17.44 dB 3:15 027-In the Summertime (Live Oct. 21, 1981)
––––––––––––––––––––––––––––––––––––––––

Number of tracks: 3
Official DR value: DR11

Samplerate: 44100 Hz
Channels: 2
Bits per sample: 24
Bitrate: 1488 kbps
Codec: FLAC
================================================================================

––––––––––––––––––––––––––––––––––––––––
Analyzed: Bob Dylan / Trouble No More: The Bootleg Series, Vol. 13 / 1979-1981 (Deluxe Edition)
––––––––––––––––––––––––––––––––––––––––

DR Peak RMS Duration Track
––––––––––––––––––––––––––––––––––––––––
DR10 -4.65 dB -16.51 dB 4:35 015-Slow Train (Live June 29, 1981)
DR11 -2.53 dB -16.11 dB 4:30 016-Ain't Gonna Go to Hell for Anybody (Live Apr. 24, 1980)
DR10 -4.92 dB -17.10 dB 4:35 018-Ain't No Man Righteous, No Not One (Live Nov. 16, 1979)
DR13 -3.54 dB -20.68 dB 4:25 019-Saving Grace (Live Nov. 6, 1979)
DR11 -3.32 dB -16.18 dB 4:18 020-Blessed Is the Name (Live Nov. 20, 1979)
DR11 -2.88 dB -16.37 dB 4:20 021-Solid Rock (Live Oct. 23, 1981)
DR12 -4.30 dB -18.66 dB 6:18 022-Are You Ready? (Live Apr. 30, 1980)
DR9 -5.20 dB -16.63 dB 4:45 024-Shot of Love (Live July 25, 1981)
DR13 -2.20 dB -17.81 dB 4:22 025-Dead Man, Dead Man (Live June 21, 1981)
DR13 -1.05 dB -17.62 dB 4:44 026-Watered-Down Love (Live June 12, 1981)
DR11 -2.56 dB -15.92 dB 6:01 028-The Groom's Still Waiting at the Altar (Live Nov. 13, 1980)
DR14 -1.47 dB -19.24 dB 5:23 029-Caribbean Wind (Live Nov. 12, 1980)
DR12 -5.88 dB -20.79 dB 3:41 030-Every Grain of Sand (Live Nov. 21, 1981)
––––––––––––––––––––––––––––––––––––––––

Number of tracks: 13
Official DR value: DR12

Samplerate: 96000 Hz
Channels: 2
Bits per sample: 24
Bitrate: 2561 kbps
Codec: FLAC
================================================================================

Analyzed: Bob Dylan / Trouble No More: The Bootleg Series, Vol. 13 / 1979-1981 (Deluxe Edition)
––––––––––––––––––––––––––––––––––––––––

DR Peak RMS Duration Track
––––––––––––––––––––––––––––––––––––––––
DR12 -2.99 dB -17.00 dB 4:58 034-Gonna Change My Way of Thinking (Rehearsal with horns)
DR14 -4.29 dB -22.29 dB 4:23 036-When He Returns (Take 2)
––––––––––––––––––––––––––––––––––––––––

Number of tracks: 2
Official DR value: DR13

Samplerate: 44100 Hz
Channels: 2
Bits per sample: 24
Bitrate: 1253 kbps
Codec: FLAC
================================================================================

––––––––––––––––––––––––––––––––––––––––
Analyzed: Bob Dylan / Trouble No More: The Bootleg Series, Vol. 13 / 1979-1981 (Deluxe Edition)
––––––––––––––––––––––––––––––––––––––––

DR Peak RMS Duration Track
––––––––––––––––––––––––––––––––––––––––
DR14 -0.25 dB -17.34 dB 3:03 031-Slow Train (Soundcheck)
DR15 -1.19 dB -19.38 dB 3:38 032-Do Right to Me Baby (Do Unto Others) (Soundcheck)
DR13 -2.23 dB -18.40 dB 2:41 033-Help Me Understand (Soundcheck)
DR14 -1.39 dB -17.01 dB 5:40 035-Gotta Serve Somebody (Take 1)
DR11 -4.25 dB -17.03 dB 4:59 037-Ain't No Man Righteous, No Not One (Take 6)
DR15 -0.24 dB -18.15 dB 4:50 038-Trouble In Mind (Take 1)
DR13 -3.96 dB -18.22 dB 4:08 039-Ye Shall Be Changed (Outtake)
DR12 -4.02 dB -19.76 dB 5:05 040-Covenant Woman (Take 3)
DR10 -6.02 dB -20.08 dB 2:35 041-Stand by Faith (Rehearsal)
DR11 -3.97 dB -18.17 dB 5:19 042-I Will Love Him (Live Apr. 19, 1980)
DR12 -3.25 dB -17.04 dB 2:46 043-Jesus Is the One (Live July 17, 1981)
DR12 -3.87 dB -19.96 dB 2:48 044-City of Gold (Live Nov. 22, 1980)
DR10 -5.16 dB -17.04 dB 4:05 045-Thief on the Cross (Live Nov. 10, 1981)
DR12 -2.25 dB -17.97 dB 5:50 046-Pressing On (Take 1)
––––––––––––––––––––––––––––––––––––––––

Number of tracks: 14
Official DR value: DR12

Samplerate: 96000 Hz
Channels: 2
Bits per sample: 24
Bitrate: 2455 kbps
Codec: FLAC
================================================================================

Statistics for: 053-Rise Again (Rehearsal)
Number of samples: 8066865
Duration: 3:03
––––––––––––––––––––––––––––––––––––––––

Left Right

Peak Value: -3.77 dB –- -3.77 dB
Avg RMS: -21.68 dB –- -21.68 dB
DR channel: 13.42 dB –- 13.42 dB
––––––––––––––––––––––––––––––––––––––––

Official DR Value: DR13

Samplerate: 44100 Hz
Channels: 2
Bits per sample: 24
Bitrate: 726 kbps
Codec: FLAC
================================================================================

foobar2000 1.3.16 / Dynamic Range Meter 1.1.1
log date: 2017-11-05 11:07:53

––––––––––––––––––––––––––––––––––––––––
Analyzed: Bob Dylan / Trouble No More: The Bootleg Series, Vol. 13 / 1979-1981 (Deluxe Edition)
––––––––––––––––––––––––––––––––––––––––

DR Peak RMS Duration Track
––––––––––––––––––––––––––––––––––––––––
DR13 -1.44 dB -16.95 dB 5:37 047-Slow Train (Rehearsal with horns)
DR13 -0.79 dB -16.46 dB 4:35 048-Gotta Serve Somebody (Rehearsal with horns)
DR12 -1.08 dB -16.56 dB 5:44 049-Making a Liar Out of Me (Rehearsal)
DR12 -2.91 dB -16.00 dB 4:11 050-Yonder Comes Sin (Rehearsal)
DR12 -7.17 dB -20.74 dB 1:00 051-Radio Spot for January 1980, Portland, OR show
DR14 -0.56 dB -16.35 dB 4:20 052-Cover Down, Pray Through (Live May 1, 1980)
DR11 -1.86 dB -15.52 dB 3:51 054-Ain't Gonna Go to Hell for Anybody (Live Dec. 2, 1980)
DR12 -1.12 dB -15.11 dB 5:26 055-The Groom's Still Waiting at the Altar (Take 2)
DR12 -2.98 dB -17.53 dB 5:58 056-Caribbean Wind (Rehearsal with pedal steel)
DR11 -1.87 dB -14.91 dB 4:31 057-You Changed My Life (Take 4)
DR11 -2.54 dB -16.06 dB 4:24 058-Shot of Love (Outtake)
DR13 -1.69 dB -16.44 dB 4:16 059-Watered-Down Love (Outtake)
DR13 -1.25 dB -16.38 dB 7:22 060-Dead Man, Dead Man (Outtake)
DR13 -4.00 dB -21.13 dB 4:48 061-Every Grain of Sand (Rehearsal)
––––––––––––––––––––––––––––––––––––––––

Number of tracks: 14
Official DR value: DR12

Samplerate: 96000 Hz
Channels: 2
Bits per sample: 24
Bitrate: 2481 kbps
Codec: FLAC
================================================================================

Analyzed: Bob Dylan / Trouble No More: The Bootleg Series, Vol. 13 / 1979-1981 (Deluxe Edition)
––––––––––––––––––––––––––––––––––––––––

DR Peak RMS Duration Track
––––––––––––––––––––––––––––––––––––––––
DR12 -0.92 dB -16.15 dB 6:53 062-Gotta Serve Somebody (Live in Toronto)
DR13 -2.28 dB -18.22 dB 4:44 063-I Believe in You (Live in Toronto)
DR12 -3.12 dB -17.40 dB 6:08 064-Covenant Woman (Live in Toronto)
DR12 -1.43 dB -15.75 dB 5:41 065-When You Gonna Wake Up? (Live in Toronto)
DR14 -1.59 dB -19.21 dB 5:25 066-When He Returns (Live in Toronto)
DR12 -1.53 dB -16.06 dB 4:15 067-Ain't Gonna Go to Hell for Anybody (Live in Toronto)
DR13 -0.89 dB -15.65 dB 4:33 068-Cover Down, Pray Through (Live in Toronto)
DR12 -2.32 dB -17.15 dB 5:40 069-Man Gave Names to All the Animals (Live in Toronto)
DR13 -1.22 dB -17.16 dB 5:23 070-Precious Angel (Live in Toronto)
––––––––––––––––––––––––––––––––––––––––

Number of tracks: 9
Official DR value: DR13

Samplerate: 96000 Hz
Channels: 2
Bits per sample: 24
Bitrate: 2804 kbps
Codec: FLAC
================================================================================

––––––––––––––––––––––––––––––––––––––––
Statistics for: 077-Band Introductions (Live in Toronto)
Number of samples: 5540171
Duration: 2:06
––––––––––––––––––––––––––––––––––––––––

Left Right

Peak Value: -3.96 dB –- -3.97 dB
Avg RMS: -20.86 dB –- -21.44 dB
DR channel: 14.22 dB –- 14.68 dB
––––––––––––––––––––––––––––––––––––––––

Official DR Value: DR14

Samplerate: 44100 Hz
Channels: 2
Bits per sample: 24
Bitrate: 1572 kbps
Codec: FLAC
================================================================================

foobar2000 1.3.16 / Dynamic Range Meter 1.1.1

––––––––––––––––––––––––––––––––––––––––
Analyzed: Bob Dylan / Trouble No More: The Bootleg Series, Vol. 13 / 1979-1981 (Deluxe Edition)
––––––––––––––––––––––––––––––––––––––––

DR Peak RMS Duration Track
––––––––––––––––––––––––––––––––––––––––
DR12 -2.46 dB -16.76 dB 6:49 071-Slow Train (Live in Toronto)
DR12 -2.76 dB -17.95 dB 4:42 072-Do Right to Me Baby (Do Unto Others) (Live in Toronto)
DR11 -0.42 dB -15.34 dB 4:50 073-Solid Rock (Live in Toronto)
DR14 -1.12 dB -19.21 dB 4:42 074-Saving Grace (Live in Toronto)
DR12 -2.93 dB -17.59 dB 6:33 075-What Can I Do for You? (Live in Toronto)
DR12 -1.13 dB -16.46 dB 6:17 076-In the Garden (Live in Toronto)
DR13 -0.50 dB -16.15 dB 4:29 078-Are You Ready? (Live in Toronto)
DR12 -1.68 dB -17.57 dB 5:26 079-Pressing On (Live in Toronto)
––––––––––––––––––––––––––––––––––––––––

Number of tracks: 8
Official DR value: DR12

Samplerate: 96000 Hz
Channels: 2
Bits per sample: 24
Bitrate: 2626 kbps
Codec: FLAC
================================================================================

Analyzed: Bob Dylan / Trouble No More: The Bootleg Series, Vol. 13 / 1979-1981 (Deluxe Edition)
––––––––––––––––––––––––––––––––––––––––

DR Peak RMS Duration Track
––––––––––––––––––––––––––––––––––––––––
DR10 -1.58 dB -13.90 dB 4:30 080-Gotta Serve Somebody (Live in London)
DR13 -1.90 dB -16.17 dB 4:48 083-Man Gave Names to All the Animals (Live in London)
DR11 -1.47 dB -13.33 dB 4:07 084-Maggie's Farm (Live in London)
––––––––––––––––––––––––––––––––––––––––

Number of tracks: 3
Official DR value: DR11

Samplerate: 44100 Hz
Channels: 2
Bits per sample: 24
Bitrate: 1583 kbps
Codec: FLAC
================================================================================

––––––––––––––––––––––––––––––––––––––––
Analyzed: Bob Dylan / Trouble No More: The Bootleg Series, Vol. 13 / 1979-1981 (Deluxe Edition)
––––––––––––––––––––––––––––––––––––––––

DR Peak RMS Duration Track
––––––––––––––––––––––––––––––––––––––––
DR11 -1.51 dB -14.38 dB 4:57 081-I Believe in You (Live in London)
DR10 -1.28 dB -13.27 dB 6:25 082-Like a Rolling Stone (Live in London)
DR11 -1.31 dB -14.75 dB 3:46 085-I Don't Believe You (She Acts Like We Never Have Met) (Live in London)
DR9 -1.37 dB -12.14 dB 4:54 086-Dead Man, Dead Man (Live in London)
DR15 -1.68 dB -20.09 dB 5:10 087-Girl from the North Country (Live in London)
DR10 -1.34 dB -13.59 dB 3:26 088-Ballad of a Thin Man (Live in London)
––––––––––––––––––––––––––––––––––––––––

Number of tracks: 6
Official DR value: DR11

Samplerate: 96000 Hz
Channels: 2
Bits per sample: 24
Bitrate: 2828 kbps
Codec: FLAC
================================================================================

Statistics for: 096-Forever Young (Live in London)
Number of samples: 11232128
Duration: 4:15
––––––––––––––––––––––––––––––––––––––––

Left Right

Peak Value: -1.84 dB –- -1.57 dB
Avg RMS: -14.77 dB –- -14.32 dB
DR channel: 10.72 dB –- 10.71 dB
––––––––––––––––––––––––––––––––––––––––

Official DR Value: DR11

Samplerate: 44100 Hz
Channels: 2
Bits per sample: 24
Bitrate: 1529 kbps
Codec: FLAC
================================================================================

foobar2000 1.3.16 / Dynamic Range Meter 1.1.1

––––––––––––––––––––––––––––––––––––––––
Analyzed: Bob Dylan / Trouble No More: The Bootleg Series, Vol. 13 / 1979-1981 (Deluxe Edition)
––––––––––––––––––––––––––––––––––––––––

DR Peak RMS Duration Track
––––––––––––––––––––––––––––––––––––––––
DR9 -1.45 dB -12.62 dB 4:52 089-Slow Train (Live in London)
DR11 -1.68 dB -15.64 dB 3:26 090-Let's Begin (Live in London)
DR11 -1.38 dB -14.38 dB 4:30 091-Lenny Bruce (Live in London)
DR11 -1.40 dB -14.29 dB 5:15 092-Mr. Tambourine Man (Live in London)
DR9 -1.28 dB -11.95 dB 4:32 093-Solid Rock (Live in London)
DR11 -1.21 dB -15.24 dB 3:50 094-Just Like a Woman (Live in London)
DR11 -1.53 dB -14.42 dB 4:51 095-Watered-Down Love (Live in London)
DR10 -1.51 dB -14.13 dB 4:49 097-When You Gonna Wake Up? (Live in London)
DR12 -1.65 dB -17.06 dB 5:48 098-In the Garden (Live in London)
DR13 -1.26 dB -17.54 dB 4:05 099-Band Introductions (Live in London)
DR10 -1.13 dB -12.98 dB 5:00 100-Blowin' in the Wind (Live in London)
DR14 -1.67 dB -18.15 dB 5:00 101-It's All Over Now, Baby Blue (Live in London)
DR12 -0.91 dB -15.26 dB 5:01 102-Knockin' on Heaven's Door (Live in London)
––––––––––––––––––––––––––––––––––––––––

Number of tracks: 13
Official DR value: DR11

Samplerate: 96000 Hz
Channels: 2
Bits per sample: 24
Bitrate: 2853 kbps
Codec: FLAC
================================================================================


Thanks to the Original customer!

Bob Dylan & The Band - The Bootleg Series, Vol.11
Bob Dylan - The Cutting Edge 1965-1966: Bootleg Series Volume 12